<svg xmlns="http://www.w3.org/2000/svg">
<defs>
<font
       font-weight="400"
       font-style="normal"
       style="fill-rule:nonzero"
       font-variant="normal"
       horiz-adv-x="667"
       id="FontID0">
      <font-face
         id="font-face3132"
         font-family="Arial" />
      <missing-glyph
         id="missing-glyph3136">
        <path
           id="path3134"
           d="M0 0z" />
      </missing-glyph>
      <glyph
         id="glyph3140"
         horiz-adv-x="556"
         unicode="8">
        <path
           id="path3138"
           d="M176.834 388.168c-36.4959,13.3346 -63.4958,32.3266 -81.165,57.1651 -17.5039,24.6613 -26.3385,54.3305 -26.3385,88.8304 0,52.1691 18.6732,95.8343 56.173,131.338 37.4999,35.5038 87.165,53.3266 149.326,53.3266 62.5037,0 112.842,-18.1653 151.003,-54.4958 37.9959,-36.3306 56.9998,-80.5036 56.9998,-132.661 0,-33.177 -8.66926,-62.0076 -25.996,-86.669 -17.5039,-24.5078 -43.8423,-43.4998 -79.3343,-56.8344 43.8305,-14.3385 77.3265,-37.3345 100.334,-69.3304 22.8306,-31.8424 34.3345,-70.0037 34.3345,-114.165 0,-61.3344 -21.6731,-112.677 -64.8423,-154.334 -43.3345,-41.6691 -100.334,-62.5037 -170.999,-62.5037 -70.6651,0 -127.499,20.8346 -170.834,62.669 -43.3345,41.8345 -64.9958,93.9918 -64.9958,156.495 0,46.4998 11.8346,85.4997 35.5038,117 23.492,31.3345 57.1651,52.8305 100.83,64.169zm-17.6692 148.995c0,-33.8266 11.0078,-61.4998 32.6692,-82.9957 21.8385,-21.496 50.1612,-32.3385 85.0036,-32.3385 33.8266,0 61.6651,10.6653 83.3264,32.0077 21.6731,21.3306 32.3385,47.4919 32.3385,78.3304 0,32.3385 -11.0078,59.3383 -33.3306,81.3304 -22.3346,22.0039 -50.0077,32.9999 -83.3383,32.9999 -33.4959,0 -61.3344,-10.8307 -83.5036,-32.1613 -22.1574,-21.5078 -33.1652,-47.3384 -33.1652,-77.1729zm-28.3345 -330.66c0,-25.0038 5.99998,-49.3345 17.8346,-72.6729 11.8346,-23.492 29.5038,-41.6691 53.0077,-54.4958 23.492,-12.8385 48.6612,-19.3346 75.6611,-19.3346 41.9998,0 76.6651,13.4999 103.996,40.6652 27.3424,26.9999 41.0077,61.3344 41.0077,103.004 0,42.3305 -14.0078,77.3265 -42.1652,105 -28.1692,27.6613 -63.5076,41.5038 -105.838,41.5038 -41.3384,0 -75.4958,-13.6771 -102.661,-41.0077 -27.1771,-27.496 -40.8424,-61.6651 -40.8424,-102.661z" />
      </glyph>
      <glyph
         id="glyph3144"
         horiz-adv-x="556"
         unicode="9">
        <path
           id="path3142"
           d="M54.6612 165.495l84.5075 7.84249c7.16926,-39.6731 20.8346,-68.5037 40.9959,-86.5036 20.1731,-17.8346 46.0038,-26.8345 77.669,-26.8345 26.9999,0 50.6691,6.16533 70.9958,18.6613 20.3385,12.3425 37.0038,28.8424 50.0077,49.4998 13.1574,20.6692 23.9999,48.673 32.8345,83.669 8.65745,35.1731 13.1574,71.0076 13.1574,107.504 0,3.83857 -0.165354,9.83854 -0.496061,17.5039 -17.6692,-27.8385 -41.6691,-50.6691 -71.9997,-68.0076 -30.4959,-17.4921 -63.4958,-26.1613 -98.8343,-26.1613 -59.3265,0 -109.5,21.496 -150.495,64.4997 -41.0077,43.0038 -61.4998,99.4957 -61.4998,169.83 0,72.6729 21.3306,131.007 64.1572,175.334 42.8384,44.3384 96.5075,66.4958 161.007,66.4958 46.4998,0 88.9957,-12.6614 127.665,-37.6652 38.5038,-24.992 67.8304,-60.8265 87.8382,-107.161 19.996,-46.3345 29.9999,-113.503 29.9999,-201.507 0,-91.3225 -9.83854,-164.161 -29.6692,-218.491 -20.0078,-54.1651 -49.4998,-95.3382 -88.665,-123.673 -39.3424,-28.3345 -85.169,-42.4959 -137.999,-42.4959 -56.0077,0 -101.669,15.496 -137.173,46.6652 -35.5038,31.0038 -56.8344,74.669 -64.0037,130.996zm359.833 316.003c0,50.3384 -13.3228,90.5075 -40.1573,120 -26.9999,29.6692 -59.173,44.5038 -97.0036,44.5038 -38.9998,0 -73.0036,-16.0039 -102,-47.8345 -28.9959,-31.9959 -43.4998,-73.3344 -43.4998,-124.003 0,-45.6612 13.8307,-82.665 41.3384,-111.165 27.496,-28.4999 61.3226,-42.6612 101.657,-42.6612 40.8424,0 74.1729,14.1614 100.334,42.6612 26.3385,28.4999 39.3306,67.9958 39.3306,118.5z" />
      </glyph>
      <glyph
         id="glyph3148"
         horiz-adv-x="556"
         unicode="3">
        <path
           id="path3146"
           d="M41.9998 188.999l87.8382 11.6692c10.1574,-49.8305 27.3306,-85.665 51.4959,-107.669 24.3306,-22.0039 53.8344,-32.9999 88.665,-32.9999 41.3384,0 76.3343,14.3385 104.834,43.0038 28.3345,28.6652 42.6612,64.169 42.6612,106.5 0,40.3345 -13.1574,73.6651 -39.4959,99.8264 -26.5038,26.1731 -59.9998,39.3424 -100.665,39.3424 -16.6653,0 -37.3345,-3.34251 -61.9958,-9.83854l9.82673 77.1611c5.83462,-0.661415 10.5,-0.992122 14.1732,-0.992122 37.3345,0 70.9958,9.82673 100.996,29.3267 29.9999,19.4999 44.9998,49.6652 44.9998,90.3422 0,32.1613 -10.996,58.9958 -32.8345,79.9957 -21.8267,21.1653 -49.9959,31.8306 -84.4957,31.8306 -34.1692,0 -62.669,-10.8307 -85.3343,-32.1613 -22.8306,-21.5078 -37.4999,-53.8344 -44.0077,-96.8382l-87.8264 15.6732c10.6653,58.9958 35.1613,104.657 73.169,136.996 38.1613,32.3385 85.4997,48.6612 142.169,48.6612 38.9998,0 74.9997,-8.49209 107.822,-25.1574 32.8345,-16.8425 58.0037,-39.6731 75.5076,-68.669 17.3267,-28.9959 26.1613,-59.6691 26.1613,-92.3382 0,-30.8267 -8.32674,-58.9958 -24.992,-84.4957 -16.6771,-25.3345 -41.1731,-45.4959 -73.6769,-60.4958 42.3424,-9.67319 75.1769,-29.9999 98.6689,-60.8383 23.3385,-30.6613 35.0077,-69.1651 35.0077,-115.334 0,-62.5037 -22.6771,-115.5 -68.3383,-158.999 -45.4959,-43.4998 -103.169,-65.1612 -172.83,-65.1612 -62.8344,0 -115.003,18.6613 -156.507,56.1612 -41.492,37.3345 -65.1612,85.8304 -70.9958,145.499z" />
      </glyph>
      <glyph
         id="glyph3152"
         horiz-adv-x="556"
         unicode="7">
        <path
           id="path3150"
           d="M47.3384 622.001l0 84.4957 463.333 0 0 -68.3265c-45.5077,-48.5077 -90.6729,-113.007 -135.507,-193.334 -44.6691,-80.3383 -79.3343,-163.169 -103.665,-248.007 -17.6692,-59.9998 -28.8306,-125.492 -33.6613,-196.83l-90.3422 0c1.00393,56.3384 12,124.334 33.177,204.165 21.1653,79.665 51.4959,156.673 90.9918,230.668 39.6731,73.9958 81.6729,136.499 126.33,187.169l-350.656 0z" />
      </glyph>
      <glyph
         id="glyph3156"
         horiz-adv-x="556"
         unicode="6">
        <path
           id="path3154"
           d="M497.502 540.506l-87.3304 -6.83856c-7.84249,34.4999 -18.8385,59.6691 -33.177,75.1651 -23.8227,25.1692 -53.1612,37.6652 -87.9918,37.6652 -28.0038,0 -52.4998,-7.83068 -73.6651,-23.492 -27.6731,-20.1731 -49.4998,-49.677 -65.5037,-88.3343 -15.8385,-38.6691 -24.1653,-93.8382 -24.8385,-165.507 21.1653,32.1731 47.0077,56.173 77.669,71.8344 30.5078,15.496 62.669,23.3385 96.165,23.3385 58.6651,0 108.507,-21.5078 149.669,-64.6651 41.1731,-43.1691 61.8305,-98.8343 61.8305,-167.173 0,-44.9998 -9.82673,-86.669 -29.1613,-125.338 -19.3346,-38.492 -46.0038,-68.1611 -79.8304,-88.665 -33.8384,-20.492 -72.1651,-30.6613 -115.169,-30.6613 -73.3344,0 -133.003,26.8345 -179.173,80.8343 -46.3345,53.8344 -69.3304,142.665 -69.3304,266.326 0,138.342 25.4999,238.842 76.6651,301.676 44.5038,54.6612 104.504,82.1572 180.165,82.1572 56.173,0 102.342,-15.8267 138.342,-47.4919 35.9999,-31.4999 57.4958,-75.1651 64.6651,-130.83zm-358.841 -308.503c0,-30.3306 6.50785,-59.3383 19.3346,-86.9997 12.8385,-27.6731 30.8385,-48.673 53.8344,-63.1651 23.1731,-14.5039 47.5037,-21.8385 72.8383,-21.8385 37.1691,0 68.9997,14.9999 95.6689,44.9998 26.6574,29.9999 39.992,70.6651 39.992,121.996 0,49.4998 -13.1574,88.4997 -39.4959,117 -26.3385,28.4999 -59.5037,42.6731 -99.4957,42.6731 -39.8384,0 -73.4997,-14.1732 -101.173,-42.6731 -27.6613,-28.4999 -41.5038,-65.8226 -41.5038,-111.992z" />
      </glyph>
      <glyph
         id="glyph3160"
         horiz-adv-x="556"
         unicode="5">
        <path
           id="path3158"
           d="M41.5038 187.499l92.3264 7.83068c6.83856,-44.9998 22.6653,-78.6611 47.5037,-101.326 25.0038,-22.6653 55.0037,-34.0038 90.165,-34.0038 42.3305,0 78.165,16.0039 107.338,47.8345 29.3267,31.9959 43.9959,74.3383 43.9959,127.003 0,50.1612 -13.996,89.6571 -42.1652,118.665 -28.1692,28.9959 -64.9958,43.4998 -110.669,43.4998 -28.3345,0 -53.8344,-6.50785 -76.6651,-19.3346 -22.8306,-12.8385 -40.6652,-29.5038 -53.6691,-49.9959l-82.4997 10.6653 69.3304 367.664 356.006 0 0 -83.9997 -285.672 0 -38.6691 -192.33c43.0038,29.9999 88.1689,44.9998 135.342,44.9998 62.4919,0 115.169,-21.6731 158.161,-65.0076 43.0038,-43.3345 64.4997,-98.9996 64.4997,-166.995 0,-64.8305 -18.9921,-120.838 -56.6691,-167.999 -45.9919,-57.8384 -108.661,-86.8343 -187.995,-86.8343 -65.1612,0 -118.334,18.1653 -159.495,54.6612 -41.1731,36.5077 -64.6651,84.8382 -70.4997,145.003z" />
      </glyph>
      <glyph
         id="glyph3164"
         horiz-adv-x="556"
         unicode="0">
        <path
           id="path3162"
           d="M41.5038 352.995c0,84.6729 8.65745,152.834 26.1613,204.342 17.3385,51.6612 43.3345,91.4996 77.669,119.492 34.3345,28.0038 77.5036,41.9998 129.496,41.9998 38.5038,0 72.1651,-7.83068 101.173,-23.3267 28.9959,-15.3306 52.8305,-37.6652 71.8344,-66.8383 18.8267,-29.1613 33.6613,-64.6651 44.3266,-106.5 10.8425,-41.8345 16.1692,-98.161 16.1692,-169.169 0,-83.9997 -8.66926,-151.665 -25.8306,-203.326 -17.3385,-51.673 -43.1691,-91.4996 -77.5036,-119.669 -34.3345,-28.1692 -77.669,-42.1652 -130.169,-42.1652 -68.9997,0 -123.165,24.6613 -162.495,74.1611 -47.173,59.5037 -70.8304,156.673 -70.8304,290.999zm90.3304 0c0,-117.496 13.8307,-195.661 41.3384,-234.66 27.496,-38.8345 61.3226,-58.3344 101.657,-58.3344 40.4998,0 74.3383,19.6653 101.834,58.6651 27.5078,38.9998 41.3384,117.165 41.3384,234.33 0,117.838 -13.8307,196.169 -41.3384,234.838 -27.496,38.8345 -61.6651,58.1691 -102.661,58.1691 -40.4998,0 -72.6729,-17.1732 -96.8382,-51.3305 -30.1652,-43.4998 -45.3305,-124.169 -45.3305,-241.676z" />
      </glyph>
      <glyph
         id="glyph3168"
         horiz-adv-x="556"
         unicode="4">
        <path
           id="path3166"
           d="M323.172 0l0 171.33 -310.511 0 0 80.669 326.668 463.829 71.8344 0 0 -463.829 96.6728 0 0 -80.669 -96.6728 0 0 -171.33 -87.9918 0zm0 251.999l0 322.664 -224.007 -322.664 224.007 0z" />
      </glyph>
    </font>
    <style
       id="style3171"
       type="text/css"><![CDATA[
    @font-face { font-family:"Arial";src:url("#FontID0") format(svg)}
    .str0 {stroke:black;stroke-width:20}
    .str1 {stroke:black;stroke-width:50}
    .str4 {stroke:black;stroke-width:75}
    .str5 {stroke:#00CCFF;stroke-width:75}
    .str3 {stroke:#99FF00;stroke-width:75}
    .str2 {stroke:red;stroke-width:75;stroke-linejoin:round}
    .fil2 {fill:none}
    .fil6 {fill:#E31E24}
    .fil0 {fill:black}
    .fil4 {fill:#00CCFF}
    .fil5 {fill:lime}
    .fil3 {fill:black;fill-rule:nonzero}
    .fil1 {fill:url(#id0)}
    .fnt0 {font-weight:normal;font-size:846.67;font-family:'Arial'}
   ]]></style>
    <linearGradient
       y2="6759.46"
       x2="1596.69"
       y1="6759.46"
       x1="17324.2"
       gradientUnits="userSpaceOnUse"
       id="id0">
      <stop
         id="stop3173"
         style="stop-color:#E31E24"
         offset="0" />
      <stop
         id="stop3175"
         style="stop-color:#EF7F1A"
         offset="0.290196" />
      <stop
         id="stop3177"
         style="stop-color:#FFED00"
         offset="0.411765" />
      <stop
         id="stop3179"
         style="stop-color:#009846"
         offset="0.580392" />
      <stop
         id="stop3181"
         style="stop-color:#00A0E3"
         offset="0.709804" />
      <stop
         id="stop3183"
         style="stop-color:#0079C0"
         offset="0.811765" />
      <stop
         id="stop3185"
         style="stop-color:#AE4A84"
         offset="1" />
    </linearGradient>
    <inkscape:perspective
       id="perspective194"
       inkscape:persp3d-origin="382 : 197 : 1"
       inkscape:vp_z="764 : 295.5 : 1"
       inkscape:vp_y="0 : 1000 : 0"
       inkscape:vp_x="0 : 295.5 : 1"
       sodipodi:type="inkscape:persp3d" />
    <inkscape:perspective
       sodipodi:type="inkscape:persp3d"
       inkscape:vp_x="0 : 112.5 : 1"
       inkscape:vp_y="0 : 1000 : 0"
       inkscape:vp_z="768 : 112.5 : 1"
       inkscape:persp3d-origin="384 : 75 : 1"
       id="perspective377-30" />
    <font
       id="FontID0-52"
       horiz-adv-x="667"
       font-variant="normal"
       style="fill-rule:nonzero"
       font-style="normal"
       font-weight="400">
      <font-face
         font-family="Arial"
         id="font-face3132-9" />
      <missing-glyph
         id="missing-glyph3136-0">
        <path
           d="M0 0z"
           id="path3134-2" />
      </missing-glyph>
      <glyph
         unicode="8"
         horiz-adv-x="556"
         id="glyph3140-8">
        <path
           d="M176.834 388.168c-36.4959,13.3346 -63.4958,32.3266 -81.165,57.1651 -17.5039,24.6613 -26.3385,54.3305 -26.3385,88.8304 0,52.1691 18.6732,95.8343 56.173,131.338 37.4999,35.5038 87.165,53.3266 149.326,53.3266 62.5037,0 112.842,-18.1653 151.003,-54.4958 37.9959,-36.3306 56.9998,-80.5036 56.9998,-132.661 0,-33.177 -8.66926,-62.0076 -25.996,-86.669 -17.5039,-24.5078 -43.8423,-43.4998 -79.3343,-56.8344 43.8305,-14.3385 77.3265,-37.3345 100.334,-69.3304 22.8306,-31.8424 34.3345,-70.0037 34.3345,-114.165 0,-61.3344 -21.6731,-112.677 -64.8423,-154.334 -43.3345,-41.6691 -100.334,-62.5037 -170.999,-62.5037 -70.6651,0 -127.499,20.8346 -170.834,62.669 -43.3345,41.8345 -64.9958,93.9918 -64.9958,156.495 0,46.4998 11.8346,85.4997 35.5038,117 23.492,31.3345 57.1651,52.8305 100.83,64.169zm-17.6692 148.995c0,-33.8266 11.0078,-61.4998 32.6692,-82.9957 21.8385,-21.496 50.1612,-32.3385 85.0036,-32.3385 33.8266,0 61.6651,10.6653 83.3264,32.0077 21.6731,21.3306 32.3385,47.4919 32.3385,78.3304 0,32.3385 -11.0078,59.3383 -33.3306,81.3304 -22.3346,22.0039 -50.0077,32.9999 -83.3383,32.9999 -33.4959,0 -61.3344,-10.8307 -83.5036,-32.1613 -22.1574,-21.5078 -33.1652,-47.3384 -33.1652,-77.1729zm-28.3345 -330.66c0,-25.0038 5.99998,-49.3345 17.8346,-72.6729 11.8346,-23.492 29.5038,-41.6691 53.0077,-54.4958 23.492,-12.8385 48.6612,-19.3346 75.6611,-19.3346 41.9998,0 76.6651,13.4999 103.996,40.6652 27.3424,26.9999 41.0077,61.3344 41.0077,103.004 0,42.3305 -14.0078,77.3265 -42.1652,105 -28.1692,27.6613 -63.5076,41.5038 -105.838,41.5038 -41.3384,0 -75.4958,-13.6771 -102.661,-41.0077 -27.1771,-27.496 -40.8424,-61.6651 -40.8424,-102.661z"
           id="path3138-3" />
      </glyph>
      <glyph
         unicode="9"
         horiz-adv-x="556"
         id="glyph3144-80">
        <path
           d="M54.6612 165.495l84.5075 7.84249c7.16926,-39.6731 20.8346,-68.5037 40.9959,-86.5036 20.1731,-17.8346 46.0038,-26.8345 77.669,-26.8345 26.9999,0 50.6691,6.16533 70.9958,18.6613 20.3385,12.3425 37.0038,28.8424 50.0077,49.4998 13.1574,20.6692 23.9999,48.673 32.8345,83.669 8.65745,35.1731 13.1574,71.0076 13.1574,107.504 0,3.83857 -0.165354,9.83854 -0.496061,17.5039 -17.6692,-27.8385 -41.6691,-50.6691 -71.9997,-68.0076 -30.4959,-17.4921 -63.4958,-26.1613 -98.8343,-26.1613 -59.3265,0 -109.5,21.496 -150.495,64.4997 -41.0077,43.0038 -61.4998,99.4957 -61.4998,169.83 0,72.6729 21.3306,131.007 64.1572,175.334 42.8384,44.3384 96.5075,66.4958 161.007,66.4958 46.4998,0 88.9957,-12.6614 127.665,-37.6652 38.5038,-24.992 67.8304,-60.8265 87.8382,-107.161 19.996,-46.3345 29.9999,-113.503 29.9999,-201.507 0,-91.3225 -9.83854,-164.161 -29.6692,-218.491 -20.0078,-54.1651 -49.4998,-95.3382 -88.665,-123.673 -39.3424,-28.3345 -85.169,-42.4959 -137.999,-42.4959 -56.0077,0 -101.669,15.496 -137.173,46.6652 -35.5038,31.0038 -56.8344,74.669 -64.0037,130.996zm359.833 316.003c0,50.3384 -13.3228,90.5075 -40.1573,120 -26.9999,29.6692 -59.173,44.5038 -97.0036,44.5038 -38.9998,0 -73.0036,-16.0039 -102,-47.8345 -28.9959,-31.9959 -43.4998,-73.3344 -43.4998,-124.003 0,-45.6612 13.8307,-82.665 41.3384,-111.165 27.496,-28.4999 61.3226,-42.6612 101.657,-42.6612 40.8424,0 74.1729,14.1614 100.334,42.6612 26.3385,28.4999 39.3306,67.9958 39.3306,118.5z"
           id="path3142-4" />
      </glyph>
      <glyph
         unicode="3"
         horiz-adv-x="556"
         id="glyph3148-0">
        <path
           d="M41.9998 188.999l87.8382 11.6692c10.1574,-49.8305 27.3306,-85.665 51.4959,-107.669 24.3306,-22.0039 53.8344,-32.9999 88.665,-32.9999 41.3384,0 76.3343,14.3385 104.834,43.0038 28.3345,28.6652 42.6612,64.169 42.6612,106.5 0,40.3345 -13.1574,73.6651 -39.4959,99.8264 -26.5038,26.1731 -59.9998,39.3424 -100.665,39.3424 -16.6653,0 -37.3345,-3.34251 -61.9958,-9.83854l9.82673 77.1611c5.83462,-0.661415 10.5,-0.992122 14.1732,-0.992122 37.3345,0 70.9958,9.82673 100.996,29.3267 29.9999,19.4999 44.9998,49.6652 44.9998,90.3422 0,32.1613 -10.996,58.9958 -32.8345,79.9957 -21.8267,21.1653 -49.9959,31.8306 -84.4957,31.8306 -34.1692,0 -62.669,-10.8307 -85.3343,-32.1613 -22.8306,-21.5078 -37.4999,-53.8344 -44.0077,-96.8382l-87.8264 15.6732c10.6653,58.9958 35.1613,104.657 73.169,136.996 38.1613,32.3385 85.4997,48.6612 142.169,48.6612 38.9998,0 74.9997,-8.49209 107.822,-25.1574 32.8345,-16.8425 58.0037,-39.6731 75.5076,-68.669 17.3267,-28.9959 26.1613,-59.6691 26.1613,-92.3382 0,-30.8267 -8.32674,-58.9958 -24.992,-84.4957 -16.6771,-25.3345 -41.1731,-45.4959 -73.6769,-60.4958 42.3424,-9.67319 75.1769,-29.9999 98.6689,-60.8383 23.3385,-30.6613 35.0077,-69.1651 35.0077,-115.334 0,-62.5037 -22.6771,-115.5 -68.3383,-158.999 -45.4959,-43.4998 -103.169,-65.1612 -172.83,-65.1612 -62.8344,0 -115.003,18.6613 -156.507,56.1612 -41.492,37.3345 -65.1612,85.8304 -70.9958,145.499z"
           id="path3146-9" />
      </glyph>
      <glyph
         unicode="7"
         horiz-adv-x="556"
         id="glyph3152-1">
        <path
           d="M47.3384 622.001l0 84.4957 463.333 0 0 -68.3265c-45.5077,-48.5077 -90.6729,-113.007 -135.507,-193.334 -44.6691,-80.3383 -79.3343,-163.169 -103.665,-248.007 -17.6692,-59.9998 -28.8306,-125.492 -33.6613,-196.83l-90.3422 0c1.00393,56.3384 12,124.334 33.177,204.165 21.1653,79.665 51.4959,156.673 90.9918,230.668 39.6731,73.9958 81.6729,136.499 126.33,187.169l-350.656 0z"
           id="path3150-9" />
      </glyph>
      <glyph
         unicode="6"
         horiz-adv-x="556"
         id="glyph3156-6">
        <path
           d="M497.502 540.506l-87.3304 -6.83856c-7.84249,34.4999 -18.8385,59.6691 -33.177,75.1651 -23.8227,25.1692 -53.1612,37.6652 -87.9918,37.6652 -28.0038,0 -52.4998,-7.83068 -73.6651,-23.492 -27.6731,-20.1731 -49.4998,-49.677 -65.5037,-88.3343 -15.8385,-38.6691 -24.1653,-93.8382 -24.8385,-165.507 21.1653,32.1731 47.0077,56.173 77.669,71.8344 30.5078,15.496 62.669,23.3385 96.165,23.3385 58.6651,0 108.507,-21.5078 149.669,-64.6651 41.1731,-43.1691 61.8305,-98.8343 61.8305,-167.173 0,-44.9998 -9.82673,-86.669 -29.1613,-125.338 -19.3346,-38.492 -46.0038,-68.1611 -79.8304,-88.665 -33.8384,-20.492 -72.1651,-30.6613 -115.169,-30.6613 -73.3344,0 -133.003,26.8345 -179.173,80.8343 -46.3345,53.8344 -69.3304,142.665 -69.3304,266.326 0,138.342 25.4999,238.842 76.6651,301.676 44.5038,54.6612 104.504,82.1572 180.165,82.1572 56.173,0 102.342,-15.8267 138.342,-47.4919 35.9999,-31.4999 57.4958,-75.1651 64.6651,-130.83zm-358.841 -308.503c0,-30.3306 6.50785,-59.3383 19.3346,-86.9997 12.8385,-27.6731 30.8385,-48.673 53.8344,-63.1651 23.1731,-14.5039 47.5037,-21.8385 72.8383,-21.8385 37.1691,0 68.9997,14.9999 95.6689,44.9998 26.6574,29.9999 39.992,70.6651 39.992,121.996 0,49.4998 -13.1574,88.4997 -39.4959,117 -26.3385,28.4999 -59.5037,42.6731 -99.4957,42.6731 -39.8384,0 -73.4997,-14.1732 -101.173,-42.6731 -27.6613,-28.4999 -41.5038,-65.8226 -41.5038,-111.992z"
           id="path3154-2" />
      </glyph>
      <glyph
         unicode="5"
         horiz-adv-x="556"
         id="glyph3160-5">
        <path
           d="M41.5038 187.499l92.3264 7.83068c6.83856,-44.9998 22.6653,-78.6611 47.5037,-101.326 25.0038,-22.6653 55.0037,-34.0038 90.165,-34.0038 42.3305,0 78.165,16.0039 107.338,47.8345 29.3267,31.9959 43.9959,74.3383 43.9959,127.003 0,50.1612 -13.996,89.6571 -42.1652,118.665 -28.1692,28.9959 -64.9958,43.4998 -110.669,43.4998 -28.3345,0 -53.8344,-6.50785 -76.6651,-19.3346 -22.8306,-12.8385 -40.6652,-29.5038 -53.6691,-49.9959l-82.4997 10.6653 69.3304 367.664 356.006 0 0 -83.9997 -285.672 0 -38.6691 -192.33c43.0038,29.9999 88.1689,44.9998 135.342,44.9998 62.4919,0 115.169,-21.6731 158.161,-65.0076 43.0038,-43.3345 64.4997,-98.9996 64.4997,-166.995 0,-64.8305 -18.9921,-120.838 -56.6691,-167.999 -45.9919,-57.8384 -108.661,-86.8343 -187.995,-86.8343 -65.1612,0 -118.334,18.1653 -159.495,54.6612 -41.1731,36.5077 -64.6651,84.8382 -70.4997,145.003z"
           id="path3158-4" />
      </glyph>
      <glyph
         unicode="0"
         horiz-adv-x="556"
         id="glyph3164-4">
        <path
           d="M41.5038 352.995c0,84.6729 8.65745,152.834 26.1613,204.342 17.3385,51.6612 43.3345,91.4996 77.669,119.492 34.3345,28.0038 77.5036,41.9998 129.496,41.9998 38.5038,0 72.1651,-7.83068 101.173,-23.3267 28.9959,-15.3306 52.8305,-37.6652 71.8344,-66.8383 18.8267,-29.1613 33.6613,-64.6651 44.3266,-106.5 10.8425,-41.8345 16.1692,-98.161 16.1692,-169.169 0,-83.9997 -8.66926,-151.665 -25.8306,-203.326 -17.3385,-51.673 -43.1691,-91.4996 -77.5036,-119.669 -34.3345,-28.1692 -77.669,-42.1652 -130.169,-42.1652 -68.9997,0 -123.165,24.6613 -162.495,74.1611 -47.173,59.5037 -70.8304,156.673 -70.8304,290.999zm90.3304 0c0,-117.496 13.8307,-195.661 41.3384,-234.66 27.496,-38.8345 61.3226,-58.3344 101.657,-58.3344 40.4998,0 74.3383,19.6653 101.834,58.6651 27.5078,38.9998 41.3384,117.165 41.3384,234.33 0,117.838 -13.8307,196.169 -41.3384,234.838 -27.496,38.8345 -61.6651,58.1691 -102.661,58.1691 -40.4998,0 -72.6729,-17.1732 -96.8382,-51.3305 -30.1652,-43.4998 -45.3305,-124.169 -45.3305,-241.676z"
           id="path3162-9" />
      </glyph>
      <glyph
         unicode="4"
         horiz-adv-x="556"
         id="glyph3168-9">
        <path
           d="M323.172 0l0 171.33 -310.511 0 0 80.669 326.668 463.829 71.8344 0 0 -463.829 96.6728 0 0 -80.669 -96.6728 0 0 -171.33 -87.9918 0zm0 251.999l0 322.664 -224.007 -322.664 224.007 0z"
           id="path3166-3" />
      </glyph>
    </font>
    <style
       type="text/css"
       id="style3171-6"><![CDATA[
    @font-face { font-family:"Arial";src:url("#FontID0") format(svg)}
    .str0 {stroke:black;stroke-width:20}
    .str1 {stroke:black;stroke-width:50}
    .str4 {stroke:black;stroke-width:75}
    .str5 {stroke:#00CCFF;stroke-width:75}
    .str3 {stroke:#99FF00;stroke-width:75}
    .str2 {stroke:red;stroke-width:75;stroke-linejoin:round}
    .fil2 {fill:none}
    .fil6 {fill:#E31E24}
    .fil0 {fill:black}
    .fil4 {fill:#00CCFF}
    .fil5 {fill:lime}
    .fil3 {fill:black;fill-rule:nonzero}
    .fil1 {fill:url(#id0)}
    .fnt0 {font-weight:normal;font-size:846.67;font-family:'Arial'}
   ]]></style>
    <inkscape:perspective
       sodipodi:type="inkscape:persp3d"
       inkscape:vp_x="0 : 295.5 : 1"
       inkscape:vp_y="0 : 1000 : 0"
       inkscape:vp_z="764 : 295.5 : 1"
       inkscape:persp3d-origin="382 : 197 : 1"
       id="perspective194-5" />
    <linearGradient
       gradientTransform="matrix(2.1657299,0,0,0.38788644,12.269736,1186.0012)"
       gradientUnits="userSpaceOnUse"
       id="a-0"
       y2="-1671.507"
       x2="292.34399"
       y1="-1671.507"
       x1="122.215">
      <stop
         id="stop4-8"
         stop-color="#8000ff"
         offset="0" />
      <stop
         id="stop6-1"
         stop-color="#00f"
         offset=".1" />
      <stop
         id="stop8-9"
         stop-color="#0080ff"
         offset=".2" />
      <stop
         id="stop10-9"
         stop-color="#0ff"
         offset=".3" />
      <stop
         id="stop12-7"
         stop-color="#00ff80"
         offset=".4" />
      <stop
         id="stop14-8"
         stop-color="#0f0"
         offset=".5" />
      <stop
         id="stop16-2"
         stop-color="#80ff00"
         offset=".6" />
      <stop
         id="stop18-5"
         stop-color="#ff0"
         offset=".7" />
      <stop
         id="stop20-3"
         stop-color="#ff8000"
         offset=".8" />
      <stop
         id="stop22-4"
         stop-color="red"
         offset=".9" />
      <stop
         id="stop24-9"
         stop-color="maroon"
         offset="1" />
    </linearGradient>
    <inkscape:perspective
       id="perspective377-3"
       inkscape:persp3d-origin="384 : 75 : 1"
       inkscape:vp_z="768 : 112.5 : 1"
       inkscape:vp_y="0 : 1000 : 0"
       inkscape:vp_x="0 : 112.5 : 1"
       sodipodi:type="inkscape:persp3d" />
    <font
       font-weight="400"
       font-style="normal"
       font-variant="normal"
       horiz-adv-x="667"
       id="FontID0-5"
       horiz-origin-x="0"
       horiz-origin-y="0"
       vert-origin-x="45"
       vert-origin-y="90"
       vert-adv-y="90"
       style="font-style:normal;font-variant:normal;font-weight:400">
      <font-face
         id="font-face3132-5"
         font-family="Arial" />
      <missing-glyph
         id="missing-glyph3136-2">
        <path
           id="path3134-9"
           d="M0 0z" />
      </missing-glyph>
      <glyph
         id="glyph3140-0"
         horiz-adv-x="556"
         unicode="8">
        <path
           id="path3138-2"
           d="M176.834 388.168c-36.4959,13.3346 -63.4958,32.3266 -81.165,57.1651 -17.5039,24.6613 -26.3385,54.3305 -26.3385,88.8304 0,52.1691 18.6732,95.8343 56.173,131.338 37.4999,35.5038 87.165,53.3266 149.326,53.3266 62.5037,0 112.842,-18.1653 151.003,-54.4958 37.9959,-36.3306 56.9998,-80.5036 56.9998,-132.661 0,-33.177 -8.66926,-62.0076 -25.996,-86.669 -17.5039,-24.5078 -43.8423,-43.4998 -79.3343,-56.8344 43.8305,-14.3385 77.3265,-37.3345 100.334,-69.3304 22.8306,-31.8424 34.3345,-70.0037 34.3345,-114.165 0,-61.3344 -21.6731,-112.677 -64.8423,-154.334 -43.3345,-41.6691 -100.334,-62.5037 -170.999,-62.5037 -70.6651,0 -127.499,20.8346 -170.834,62.669 -43.3345,41.8345 -64.9958,93.9918 -64.9958,156.495 0,46.4998 11.8346,85.4997 35.5038,117 23.492,31.3345 57.1651,52.8305 100.83,64.169zm-17.6692 148.995c0,-33.8266 11.0078,-61.4998 32.6692,-82.9957 21.8385,-21.496 50.1612,-32.3385 85.0036,-32.3385 33.8266,0 61.6651,10.6653 83.3264,32.0077 21.6731,21.3306 32.3385,47.4919 32.3385,78.3304 0,32.3385 -11.0078,59.3383 -33.3306,81.3304 -22.3346,22.0039 -50.0077,32.9999 -83.3383,32.9999 -33.4959,0 -61.3344,-10.8307 -83.5036,-32.1613 -22.1574,-21.5078 -33.1652,-47.3384 -33.1652,-77.1729zm-28.3345 -330.66c0,-25.0038 5.99998,-49.3345 17.8346,-72.6729 11.8346,-23.492 29.5038,-41.6691 53.0077,-54.4958 23.492,-12.8385 48.6612,-19.3346 75.6611,-19.3346 41.9998,0 76.6651,13.4999 103.996,40.6652 27.3424,26.9999 41.0077,61.3344 41.0077,103.004 0,42.3305 -14.0078,77.3265 -42.1652,105 -28.1692,27.6613 -63.5076,41.5038 -105.838,41.5038 -41.3384,0 -75.4958,-13.6771 -102.661,-41.0077 -27.1771,-27.496 -40.8424,-61.6651 -40.8424,-102.661z" />
      </glyph>
      <glyph
         id="glyph3144-8"
         horiz-adv-x="556"
         unicode="9">
        <path
           id="path3142-3"
           d="M54.6612 165.495l84.5075 7.84249c7.16926,-39.6731 20.8346,-68.5037 40.9959,-86.5036 20.1731,-17.8346 46.0038,-26.8345 77.669,-26.8345 26.9999,0 50.6691,6.16533 70.9958,18.6613 20.3385,12.3425 37.0038,28.8424 50.0077,49.4998 13.1574,20.6692 23.9999,48.673 32.8345,83.669 8.65745,35.1731 13.1574,71.0076 13.1574,107.504 0,3.83857 -0.165354,9.83854 -0.496061,17.5039 -17.6692,-27.8385 -41.6691,-50.6691 -71.9997,-68.0076 -30.4959,-17.4921 -63.4958,-26.1613 -98.8343,-26.1613 -59.3265,0 -109.5,21.496 -150.495,64.4997 -41.0077,43.0038 -61.4998,99.4957 -61.4998,169.83 0,72.6729 21.3306,131.007 64.1572,175.334 42.8384,44.3384 96.5075,66.4958 161.007,66.4958 46.4998,0 88.9957,-12.6614 127.665,-37.6652 38.5038,-24.992 67.8304,-60.8265 87.8382,-107.161 19.996,-46.3345 29.9999,-113.503 29.9999,-201.507 0,-91.3225 -9.83854,-164.161 -29.6692,-218.491 -20.0078,-54.1651 -49.4998,-95.3382 -88.665,-123.673 -39.3424,-28.3345 -85.169,-42.4959 -137.999,-42.4959 -56.0077,0 -101.669,15.496 -137.173,46.6652 -35.5038,31.0038 -56.8344,74.669 -64.0037,130.996zm359.833 316.003c0,50.3384 -13.3228,90.5075 -40.1573,120 -26.9999,29.6692 -59.173,44.5038 -97.0036,44.5038 -38.9998,0 -73.0036,-16.0039 -102,-47.8345 -28.9959,-31.9959 -43.4998,-73.3344 -43.4998,-124.003 0,-45.6612 13.8307,-82.665 41.3384,-111.165 27.496,-28.4999 61.3226,-42.6612 101.657,-42.6612 40.8424,0 74.1729,14.1614 100.334,42.6612 26.3385,28.4999 39.3306,67.9958 39.3306,118.5z" />
      </glyph>
      <glyph
         id="glyph3148-8"
         horiz-adv-x="556"
         unicode="3">
        <path
           id="path3146-0"
           d="M41.9998 188.999l87.8382 11.6692c10.1574,-49.8305 27.3306,-85.665 51.4959,-107.669 24.3306,-22.0039 53.8344,-32.9999 88.665,-32.9999 41.3384,0 76.3343,14.3385 104.834,43.0038 28.3345,28.6652 42.6612,64.169 42.6612,106.5 0,40.3345 -13.1574,73.6651 -39.4959,99.8264 -26.5038,26.1731 -59.9998,39.3424 -100.665,39.3424 -16.6653,0 -37.3345,-3.34251 -61.9958,-9.83854l9.82673 77.1611c5.83462,-0.661415 10.5,-0.992122 14.1732,-0.992122 37.3345,0 70.9958,9.82673 100.996,29.3267 29.9999,19.4999 44.9998,49.6652 44.9998,90.3422 0,32.1613 -10.996,58.9958 -32.8345,79.9957 -21.8267,21.1653 -49.9959,31.8306 -84.4957,31.8306 -34.1692,0 -62.669,-10.8307 -85.3343,-32.1613 -22.8306,-21.5078 -37.4999,-53.8344 -44.0077,-96.8382l-87.8264 15.6732c10.6653,58.9958 35.1613,104.657 73.169,136.996 38.1613,32.3385 85.4997,48.6612 142.169,48.6612 38.9998,0 74.9997,-8.49209 107.822,-25.1574 32.8345,-16.8425 58.0037,-39.6731 75.5076,-68.669 17.3267,-28.9959 26.1613,-59.6691 26.1613,-92.3382 0,-30.8267 -8.32674,-58.9958 -24.992,-84.4957 -16.6771,-25.3345 -41.1731,-45.4959 -73.6769,-60.4958 42.3424,-9.67319 75.1769,-29.9999 98.6689,-60.8383 23.3385,-30.6613 35.0077,-69.1651 35.0077,-115.334 0,-62.5037 -22.6771,-115.5 -68.3383,-158.999 -45.4959,-43.4998 -103.169,-65.1612 -172.83,-65.1612 -62.8344,0 -115.003,18.6613 -156.507,56.1612 -41.492,37.3345 -65.1612,85.8304 -70.9958,145.499z" />
      </glyph>
      <glyph
         id="glyph3152-4"
         horiz-adv-x="556"
         unicode="7">
        <path
           id="path3150-0"
           d="M47.3384 622.001l0 84.4957 463.333 0 0 -68.3265c-45.5077,-48.5077 -90.6729,-113.007 -135.507,-193.334 -44.6691,-80.3383 -79.3343,-163.169 -103.665,-248.007 -17.6692,-59.9998 -28.8306,-125.492 -33.6613,-196.83l-90.3422 0c1.00393,56.3384 12,124.334 33.177,204.165 21.1653,79.665 51.4959,156.673 90.9918,230.668 39.6731,73.9958 81.6729,136.499 126.33,187.169l-350.656 0z" />
      </glyph>
      <glyph
         id="glyph3156-9"
         horiz-adv-x="556"
         unicode="6">
        <path
           id="path3154-1"
           d="M497.502 540.506l-87.3304 -6.83856c-7.84249,34.4999 -18.8385,59.6691 -33.177,75.1651 -23.8227,25.1692 -53.1612,37.6652 -87.9918,37.6652 -28.0038,0 -52.4998,-7.83068 -73.6651,-23.492 -27.6731,-20.1731 -49.4998,-49.677 -65.5037,-88.3343 -15.8385,-38.6691 -24.1653,-93.8382 -24.8385,-165.507 21.1653,32.1731 47.0077,56.173 77.669,71.8344 30.5078,15.496 62.669,23.3385 96.165,23.3385 58.6651,0 108.507,-21.5078 149.669,-64.6651 41.1731,-43.1691 61.8305,-98.8343 61.8305,-167.173 0,-44.9998 -9.82673,-86.669 -29.1613,-125.338 -19.3346,-38.492 -46.0038,-68.1611 -79.8304,-88.665 -33.8384,-20.492 -72.1651,-30.6613 -115.169,-30.6613 -73.3344,0 -133.003,26.8345 -179.173,80.8343 -46.3345,53.8344 -69.3304,142.665 -69.3304,266.326 0,138.342 25.4999,238.842 76.6651,301.676 44.5038,54.6612 104.504,82.1572 180.165,82.1572 56.173,0 102.342,-15.8267 138.342,-47.4919 35.9999,-31.4999 57.4958,-75.1651 64.6651,-130.83zm-358.841 -308.503c0,-30.3306 6.50785,-59.3383 19.3346,-86.9997 12.8385,-27.6731 30.8385,-48.673 53.8344,-63.1651 23.1731,-14.5039 47.5037,-21.8385 72.8383,-21.8385 37.1691,0 68.9997,14.9999 95.6689,44.9998 26.6574,29.9999 39.992,70.6651 39.992,121.996 0,49.4998 -13.1574,88.4997 -39.4959,117 -26.3385,28.4999 -59.5037,42.6731 -99.4957,42.6731 -39.8384,0 -73.4997,-14.1732 -101.173,-42.6731 -27.6613,-28.4999 -41.5038,-65.8226 -41.5038,-111.992z" />
      </glyph>
      <glyph
         id="glyph3160-9"
         horiz-adv-x="556"
         unicode="5">
        <path
           id="path3158-6"
           d="M41.5038 187.499l92.3264 7.83068c6.83856,-44.9998 22.6653,-78.6611 47.5037,-101.326 25.0038,-22.6653 55.0037,-34.0038 90.165,-34.0038 42.3305,0 78.165,16.0039 107.338,47.8345 29.3267,31.9959 43.9959,74.3383 43.9959,127.003 0,50.1612 -13.996,89.6571 -42.1652,118.665 -28.1692,28.9959 -64.9958,43.4998 -110.669,43.4998 -28.3345,0 -53.8344,-6.50785 -76.6651,-19.3346 -22.8306,-12.8385 -40.6652,-29.5038 -53.6691,-49.9959l-82.4997 10.6653 69.3304 367.664 356.006 0 0 -83.9997 -285.672 0 -38.6691 -192.33c43.0038,29.9999 88.1689,44.9998 135.342,44.9998 62.4919,0 115.169,-21.6731 158.161,-65.0076 43.0038,-43.3345 64.4997,-98.9996 64.4997,-166.995 0,-64.8305 -18.9921,-120.838 -56.6691,-167.999 -45.9919,-57.8384 -108.661,-86.8343 -187.995,-86.8343 -65.1612,0 -118.334,18.1653 -159.495,54.6612 -41.1731,36.5077 -64.6651,84.8382 -70.4997,145.003z" />
      </glyph>
      <glyph
         id="glyph3164-2"
         horiz-adv-x="556"
         unicode="0">
        <path
           id="path3162-5"
           d="M41.5038 352.995c0,84.6729 8.65745,152.834 26.1613,204.342 17.3385,51.6612 43.3345,91.4996 77.669,119.492 34.3345,28.0038 77.5036,41.9998 129.496,41.9998 38.5038,0 72.1651,-7.83068 101.173,-23.3267 28.9959,-15.3306 52.8305,-37.6652 71.8344,-66.8383 18.8267,-29.1613 33.6613,-64.6651 44.3266,-106.5 10.8425,-41.8345 16.1692,-98.161 16.1692,-169.169 0,-83.9997 -8.66926,-151.665 -25.8306,-203.326 -17.3385,-51.673 -43.1691,-91.4996 -77.5036,-119.669 -34.3345,-28.1692 -77.669,-42.1652 -130.169,-42.1652 -68.9997,0 -123.165,24.6613 -162.495,74.1611 -47.173,59.5037 -70.8304,156.673 -70.8304,290.999zm90.3304 0c0,-117.496 13.8307,-195.661 41.3384,-234.66 27.496,-38.8345 61.3226,-58.3344 101.657,-58.3344 40.4998,0 74.3383,19.6653 101.834,58.6651 27.5078,38.9998 41.3384,117.165 41.3384,234.33 0,117.838 -13.8307,196.169 -41.3384,234.838 -27.496,38.8345 -61.6651,58.1691 -102.661,58.1691 -40.4998,0 -72.6729,-17.1732 -96.8382,-51.3305 -30.1652,-43.4998 -45.3305,-124.169 -45.3305,-241.676z" />
      </glyph>
      <glyph
         id="glyph3168-4"
         horiz-adv-x="556"
         unicode="4">
        <path
           id="path3166-4"
           d="M323.172 0l0 171.33 -310.511 0 0 80.669 326.668 463.829 71.8344 0 0 -463.829 96.6728 0 0 -80.669 -96.6728 0 0 -171.33 -87.9918 0zm0 251.999l0 322.664 -224.007 -322.664 224.007 0z" />
      </glyph>
    </font>
    <style
       id="style3171-9"
       type="text/css"><![CDATA[
    @font-face { font-family:"Arial";src:url("#FontID0") format(svg)}
    .str0 {stroke:black;stroke-width:20}
    .str1 {stroke:black;stroke-width:50}
    .str4 {stroke:black;stroke-width:75}
    .str5 {stroke:#00CCFF;stroke-width:75}
    .str3 {stroke:#99FF00;stroke-width:75}
    .str2 {stroke:red;stroke-width:75;stroke-linejoin:round}
    .fil2 {fill:none}
    .fil6 {fill:#E31E24}
    .fil0 {fill:black}
    .fil4 {fill:#00CCFF}
    .fil5 {fill:lime}
    .fil3 {fill:black;fill-rule:nonzero}
    .fil1 {fill:url(#id0)}
    .fnt0 {font-weight:normal;font-size:846.67;font-family:'Arial'}
   ]]></style>
    <inkscape:perspective
       id="perspective194-9"
       inkscape:persp3d-origin="382 : 197 : 1"
       inkscape:vp_z="764 : 295.5 : 1"
       inkscape:vp_y="0 : 1000 : 0"
       inkscape:vp_x="0 : 295.5 : 1"
       sodipodi:type="inkscape:persp3d" />
    <style
       id="style1399">.cls-1{fill:#e3e3e3;}</style>
    <style
       id="style1399-4">.cls-1{fill:#e3e3e3;}</style>
    <style
       id="style1399-5">.cls-1{fill:#e3e3e3;}</style>
    <style
       id="style1399-7">.cls-1{fill:#e3e3e3;}</style>
    <style
       id="style1399-85">.cls-1{fill:#e3e3e3;}</style>
    <style
       id="style1399-4-6">.cls-1{fill:#e3e3e3;}</style>
    <style
       id="style1399-8">.cls-1{fill:#e3e3e3;}</style>
    <style
       id="style1399-4-5">.cls-1{fill:#e3e3e3;}</style>
    <linearGradient
       inkscape:collect="always"
       xlink:href="#linearGradient7323"
       id="linearGradient7297"
       gradientUnits="userSpaceOnUse"
       gradientTransform="matrix(-4.0104207,0,0,-0.43614208,1504.5116,-507.31584)"
       x1="139.22789"
       y1="-1671.507"
       x2="292.34399"
       y2="-1671.507" />
    <linearGradient
       x1="122.215"
       y1="-1671.507"
       x2="292.34399"
       y2="-1671.507"
       id="a-02"
       gradientUnits="userSpaceOnUse"
       gradientTransform="matrix(-4.5115493,0,0,-0.80802728,1585.7855,-1087.0255)">
      <stop
         offset="0"
         stop-color="#8000ff"
         id="stop4" />
      <stop
         offset=".1"
         stop-color="#00f"
         id="stop6-3" />
      <stop
         offset=".2"
         stop-color="#0080ff"
         id="stop8-7" />
      <stop
         offset=".3"
         stop-color="#0ff"
         id="stop10-5" />
      <stop
         offset=".4"
         stop-color="#00ff80"
         id="stop12-9" />
      <stop
         offset=".5"
         stop-color="#0f0"
         id="stop14-2" />
      <stop
         offset=".6"
         stop-color="#80ff00"
         id="stop16-28" />
      <stop
         offset=".7"
         stop-color="#ff0"
         id="stop18-9" />
      <stop
         offset=".8"
         stop-color="#ff8000"
         id="stop20-7" />
      <stop
         offset=".9"
         stop-color="red"
         id="stop22-3" />
      <stop
         offset="1"
         stop-color="maroon"
         id="stop24-6" />
    </linearGradient>
    <inkscape:perspective
       id="perspective377-1"
       inkscape:persp3d-origin="384 : 75 : 1"
       inkscape:vp_z="768 : 112.5 : 1"
       inkscape:vp_y="0 : 1000 : 0"
       inkscape:vp_x="0 : 112.5 : 1"
       sodipodi:type="inkscape:persp3d" />
    <font
       font-weight="400"
       font-style="normal"
       style="fill-rule:nonzero"
       font-variant="normal"
       horiz-adv-x="667"
       id="FontID0-4">
      <font-face
         id="font-face3132-0"
         font-family="Arial" />
      <missing-glyph
         id="missing-glyph3136-5">
        <path
           id="path3134-94"
           d="M0 0z" />
      </missing-glyph>
      <glyph
         id="glyph3140-6"
         horiz-adv-x="556"
         unicode="8">
        <path
           id="path3138-9"
           d="M176.834 388.168c-36.4959,13.3346 -63.4958,32.3266 -81.165,57.1651 -17.5039,24.6613 -26.3385,54.3305 -26.3385,88.8304 0,52.1691 18.6732,95.8343 56.173,131.338 37.4999,35.5038 87.165,53.3266 149.326,53.3266 62.5037,0 112.842,-18.1653 151.003,-54.4958 37.9959,-36.3306 56.9998,-80.5036 56.9998,-132.661 0,-33.177 -8.66926,-62.0076 -25.996,-86.669 -17.5039,-24.5078 -43.8423,-43.4998 -79.3343,-56.8344 43.8305,-14.3385 77.3265,-37.3345 100.334,-69.3304 22.8306,-31.8424 34.3345,-70.0037 34.3345,-114.165 0,-61.3344 -21.6731,-112.677 -64.8423,-154.334 -43.3345,-41.6691 -100.334,-62.5037 -170.999,-62.5037 -70.6651,0 -127.499,20.8346 -170.834,62.669 -43.3345,41.8345 -64.9958,93.9918 -64.9958,156.495 0,46.4998 11.8346,85.4997 35.5038,117 23.492,31.3345 57.1651,52.8305 100.83,64.169zm-17.6692 148.995c0,-33.8266 11.0078,-61.4998 32.6692,-82.9957 21.8385,-21.496 50.1612,-32.3385 85.0036,-32.3385 33.8266,0 61.6651,10.6653 83.3264,32.0077 21.6731,21.3306 32.3385,47.4919 32.3385,78.3304 0,32.3385 -11.0078,59.3383 -33.3306,81.3304 -22.3346,22.0039 -50.0077,32.9999 -83.3383,32.9999 -33.4959,0 -61.3344,-10.8307 -83.5036,-32.1613 -22.1574,-21.5078 -33.1652,-47.3384 -33.1652,-77.1729zm-28.3345 -330.66c0,-25.0038 5.99998,-49.3345 17.8346,-72.6729 11.8346,-23.492 29.5038,-41.6691 53.0077,-54.4958 23.492,-12.8385 48.6612,-19.3346 75.6611,-19.3346 41.9998,0 76.6651,13.4999 103.996,40.6652 27.3424,26.9999 41.0077,61.3344 41.0077,103.004 0,42.3305 -14.0078,77.3265 -42.1652,105 -28.1692,27.6613 -63.5076,41.5038 -105.838,41.5038 -41.3384,0 -75.4958,-13.6771 -102.661,-41.0077 -27.1771,-27.496 -40.8424,-61.6651 -40.8424,-102.661z" />
      </glyph>
      <glyph
         id="glyph3144-2"
         horiz-adv-x="556"
         unicode="9">
        <path
           id="path3142-2"
           d="M54.6612 165.495l84.5075 7.84249c7.16926,-39.6731 20.8346,-68.5037 40.9959,-86.5036 20.1731,-17.8346 46.0038,-26.8345 77.669,-26.8345 26.9999,0 50.6691,6.16533 70.9958,18.6613 20.3385,12.3425 37.0038,28.8424 50.0077,49.4998 13.1574,20.6692 23.9999,48.673 32.8345,83.669 8.65745,35.1731 13.1574,71.0076 13.1574,107.504 0,3.83857 -0.165354,9.83854 -0.496061,17.5039 -17.6692,-27.8385 -41.6691,-50.6691 -71.9997,-68.0076 -30.4959,-17.4921 -63.4958,-26.1613 -98.8343,-26.1613 -59.3265,0 -109.5,21.496 -150.495,64.4997 -41.0077,43.0038 -61.4998,99.4957 -61.4998,169.83 0,72.6729 21.3306,131.007 64.1572,175.334 42.8384,44.3384 96.5075,66.4958 161.007,66.4958 46.4998,0 88.9957,-12.6614 127.665,-37.6652 38.5038,-24.992 67.8304,-60.8265 87.8382,-107.161 19.996,-46.3345 29.9999,-113.503 29.9999,-201.507 0,-91.3225 -9.83854,-164.161 -29.6692,-218.491 -20.0078,-54.1651 -49.4998,-95.3382 -88.665,-123.673 -39.3424,-28.3345 -85.169,-42.4959 -137.999,-42.4959 -56.0077,0 -101.669,15.496 -137.173,46.6652 -35.5038,31.0038 -56.8344,74.669 -64.0037,130.996zm359.833 316.003c0,50.3384 -13.3228,90.5075 -40.1573,120 -26.9999,29.6692 -59.173,44.5038 -97.0036,44.5038 -38.9998,0 -73.0036,-16.0039 -102,-47.8345 -28.9959,-31.9959 -43.4998,-73.3344 -43.4998,-124.003 0,-45.6612 13.8307,-82.665 41.3384,-111.165 27.496,-28.4999 61.3226,-42.6612 101.657,-42.6612 40.8424,0 74.1729,14.1614 100.334,42.6612 26.3385,28.4999 39.3306,67.9958 39.3306,118.5z" />
      </glyph>
      <glyph
         id="glyph3148-4"
         horiz-adv-x="556"
         unicode="3">
        <path
           id="path3146-7"
           d="M41.9998 188.999l87.8382 11.6692c10.1574,-49.8305 27.3306,-85.665 51.4959,-107.669 24.3306,-22.0039 53.8344,-32.9999 88.665,-32.9999 41.3384,0 76.3343,14.3385 104.834,43.0038 28.3345,28.6652 42.6612,64.169 42.6612,106.5 0,40.3345 -13.1574,73.6651 -39.4959,99.8264 -26.5038,26.1731 -59.9998,39.3424 -100.665,39.3424 -16.6653,0 -37.3345,-3.34251 -61.9958,-9.83854l9.82673 77.1611c5.83462,-0.661415 10.5,-0.992122 14.1732,-0.992122 37.3345,0 70.9958,9.82673 100.996,29.3267 29.9999,19.4999 44.9998,49.6652 44.9998,90.3422 0,32.1613 -10.996,58.9958 -32.8345,79.9957 -21.8267,21.1653 -49.9959,31.8306 -84.4957,31.8306 -34.1692,0 -62.669,-10.8307 -85.3343,-32.1613 -22.8306,-21.5078 -37.4999,-53.8344 -44.0077,-96.8382l-87.8264 15.6732c10.6653,58.9958 35.1613,104.657 73.169,136.996 38.1613,32.3385 85.4997,48.6612 142.169,48.6612 38.9998,0 74.9997,-8.49209 107.822,-25.1574 32.8345,-16.8425 58.0037,-39.6731 75.5076,-68.669 17.3267,-28.9959 26.1613,-59.6691 26.1613,-92.3382 0,-30.8267 -8.32674,-58.9958 -24.992,-84.4957 -16.6771,-25.3345 -41.1731,-45.4959 -73.6769,-60.4958 42.3424,-9.67319 75.1769,-29.9999 98.6689,-60.8383 23.3385,-30.6613 35.0077,-69.1651 35.0077,-115.334 0,-62.5037 -22.6771,-115.5 -68.3383,-158.999 -45.4959,-43.4998 -103.169,-65.1612 -172.83,-65.1612 -62.8344,0 -115.003,18.6613 -156.507,56.1612 -41.492,37.3345 -65.1612,85.8304 -70.9958,145.499z" />
      </glyph>
      <glyph
         id="glyph3152-7"
         horiz-adv-x="556"
         unicode="7">
        <path
           id="path3150-5"
           d="M47.3384 622.001l0 84.4957 463.333 0 0 -68.3265c-45.5077,-48.5077 -90.6729,-113.007 -135.507,-193.334 -44.6691,-80.3383 -79.3343,-163.169 -103.665,-248.007 -17.6692,-59.9998 -28.8306,-125.492 -33.6613,-196.83l-90.3422 0c1.00393,56.3384 12,124.334 33.177,204.165 21.1653,79.665 51.4959,156.673 90.9918,230.668 39.6731,73.9958 81.6729,136.499 126.33,187.169l-350.656 0z" />
      </glyph>
      <glyph
         id="glyph3156-4"
         horiz-adv-x="556"
         unicode="6">
        <path
           id="path3154-8"
           d="M497.502 540.506l-87.3304 -6.83856c-7.84249,34.4999 -18.8385,59.6691 -33.177,75.1651 -23.8227,25.1692 -53.1612,37.6652 -87.9918,37.6652 -28.0038,0 -52.4998,-7.83068 -73.6651,-23.492 -27.6731,-20.1731 -49.4998,-49.677 -65.5037,-88.3343 -15.8385,-38.6691 -24.1653,-93.8382 -24.8385,-165.507 21.1653,32.1731 47.0077,56.173 77.669,71.8344 30.5078,15.496 62.669,23.3385 96.165,23.3385 58.6651,0 108.507,-21.5078 149.669,-64.6651 41.1731,-43.1691 61.8305,-98.8343 61.8305,-167.173 0,-44.9998 -9.82673,-86.669 -29.1613,-125.338 -19.3346,-38.492 -46.0038,-68.1611 -79.8304,-88.665 -33.8384,-20.492 -72.1651,-30.6613 -115.169,-30.6613 -73.3344,0 -133.003,26.8345 -179.173,80.8343 -46.3345,53.8344 -69.3304,142.665 -69.3304,266.326 0,138.342 25.4999,238.842 76.6651,301.676 44.5038,54.6612 104.504,82.1572 180.165,82.1572 56.173,0 102.342,-15.8267 138.342,-47.4919 35.9999,-31.4999 57.4958,-75.1651 64.6651,-130.83zm-358.841 -308.503c0,-30.3306 6.50785,-59.3383 19.3346,-86.9997 12.8385,-27.6731 30.8385,-48.673 53.8344,-63.1651 23.1731,-14.5039 47.5037,-21.8385 72.8383,-21.8385 37.1691,0 68.9997,14.9999 95.6689,44.9998 26.6574,29.9999 39.992,70.6651 39.992,121.996 0,49.4998 -13.1574,88.4997 -39.4959,117 -26.3385,28.4999 -59.5037,42.6731 -99.4957,42.6731 -39.8384,0 -73.4997,-14.1732 -101.173,-42.6731 -27.6613,-28.4999 -41.5038,-65.8226 -41.5038,-111.992z" />
      </glyph>
      <glyph
         id="glyph3160-1"
         horiz-adv-x="556"
         unicode="5">
        <path
           id="path3158-2"
           d="M41.5038 187.499l92.3264 7.83068c6.83856,-44.9998 22.6653,-78.6611 47.5037,-101.326 25.0038,-22.6653 55.0037,-34.0038 90.165,-34.0038 42.3305,0 78.165,16.0039 107.338,47.8345 29.3267,31.9959 43.9959,74.3383 43.9959,127.003 0,50.1612 -13.996,89.6571 -42.1652,118.665 -28.1692,28.9959 -64.9958,43.4998 -110.669,43.4998 -28.3345,0 -53.8344,-6.50785 -76.6651,-19.3346 -22.8306,-12.8385 -40.6652,-29.5038 -53.6691,-49.9959l-82.4997 10.6653 69.3304 367.664 356.006 0 0 -83.9997 -285.672 0 -38.6691 -192.33c43.0038,29.9999 88.1689,44.9998 135.342,44.9998 62.4919,0 115.169,-21.6731 158.161,-65.0076 43.0038,-43.3345 64.4997,-98.9996 64.4997,-166.995 0,-64.8305 -18.9921,-120.838 -56.6691,-167.999 -45.9919,-57.8384 -108.661,-86.8343 -187.995,-86.8343 -65.1612,0 -118.334,18.1653 -159.495,54.6612 -41.1731,36.5077 -64.6651,84.8382 -70.4997,145.003z" />
      </glyph>
      <glyph
         id="glyph3164-8"
         horiz-adv-x="556"
         unicode="0">
        <path
           id="path3162-93"
           d="M41.5038 352.995c0,84.6729 8.65745,152.834 26.1613,204.342 17.3385,51.6612 43.3345,91.4996 77.669,119.492 34.3345,28.0038 77.5036,41.9998 129.496,41.9998 38.5038,0 72.1651,-7.83068 101.173,-23.3267 28.9959,-15.3306 52.8305,-37.6652 71.8344,-66.8383 18.8267,-29.1613 33.6613,-64.6651 44.3266,-106.5 10.8425,-41.8345 16.1692,-98.161 16.1692,-169.169 0,-83.9997 -8.66926,-151.665 -25.8306,-203.326 -17.3385,-51.673 -43.1691,-91.4996 -77.5036,-119.669 -34.3345,-28.1692 -77.669,-42.1652 -130.169,-42.1652 -68.9997,0 -123.165,24.6613 -162.495,74.1611 -47.173,59.5037 -70.8304,156.673 -70.8304,290.999zm90.3304 0c0,-117.496 13.8307,-195.661 41.3384,-234.66 27.496,-38.8345 61.3226,-58.3344 101.657,-58.3344 40.4998,0 74.3383,19.6653 101.834,58.6651 27.5078,38.9998 41.3384,117.165 41.3384,234.33 0,117.838 -13.8307,196.169 -41.3384,234.838 -27.496,38.8345 -61.6651,58.1691 -102.661,58.1691 -40.4998,0 -72.6729,-17.1732 -96.8382,-51.3305 -30.1652,-43.4998 -45.3305,-124.169 -45.3305,-241.676z" />
      </glyph>
      <glyph
         id="glyph3168-6"
         horiz-adv-x="556"
         unicode="4">
        <path
           id="path3166-8"
           d="M323.172 0l0 171.33 -310.511 0 0 80.669 326.668 463.829 71.8344 0 0 -463.829 96.6728 0 0 -80.669 -96.6728 0 0 -171.33 -87.9918 0zm0 251.999l0 322.664 -224.007 -322.664 224.007 0z" />
      </glyph>
    </font>
    <style
       id="style3171-0"
       type="text/css"><![CDATA[
    @font-face { font-family:"Arial";src:url("#FontID0") format(svg)}
    .str0 {stroke:black;stroke-width:20}
    .str1 {stroke:black;stroke-width:50}
    .str4 {stroke:black;stroke-width:75}
    .str5 {stroke:#00CCFF;stroke-width:75}
    .str3 {stroke:#99FF00;stroke-width:75}
    .str2 {stroke:red;stroke-width:75;stroke-linejoin:round}
    .fil2 {fill:none}
    .fil6 {fill:#E31E24}
    .fil0 {fill:black}
    .fil4 {fill:#00CCFF}
    .fil5 {fill:lime}
    .fil3 {fill:black;fill-rule:nonzero}
    .fil1 {fill:url(#id0)}
    .fnt0 {font-weight:normal;font-size:846.67;font-family:'Arial'}
   ]]></style>
    <inkscape:perspective
       id="perspective194-8"
       inkscape:persp3d-origin="382 : 197 : 1"
       inkscape:vp_z="764 : 295.5 : 1"
       inkscape:vp_y="0 : 1000 : 0"
       inkscape:vp_x="0 : 295.5 : 1"
       sodipodi:type="inkscape:persp3d" />
    <inkscape:perspective
       sodipodi:type="inkscape:persp3d"
       inkscape:vp_x="0 : 112.5 : 1"
       inkscape:vp_y="0 : 1000 : 0"
       inkscape:vp_z="768 : 112.5 : 1"
       inkscape:persp3d-origin="384 : 75 : 1"
       id="perspective377-30-5" />
    <font
       id="FontID0-52-0"
       horiz-adv-x="667"
       font-variant="normal"
       style="fill-rule:nonzero"
       font-style="normal"
       font-weight="400">
      <font-face
         font-family="Arial"
         id="font-face3132-9-6" />
      <missing-glyph
         id="missing-glyph3136-0-4">
        <path
           d="M0 0z"
           id="path3134-2-6" />
      </missing-glyph>
      <glyph
         unicode="8"
         horiz-adv-x="556"
         id="glyph3140-8-2">
        <path
           d="M176.834 388.168c-36.4959,13.3346 -63.4958,32.3266 -81.165,57.1651 -17.5039,24.6613 -26.3385,54.3305 -26.3385,88.8304 0,52.1691 18.6732,95.8343 56.173,131.338 37.4999,35.5038 87.165,53.3266 149.326,53.3266 62.5037,0 112.842,-18.1653 151.003,-54.4958 37.9959,-36.3306 56.9998,-80.5036 56.9998,-132.661 0,-33.177 -8.66926,-62.0076 -25.996,-86.669 -17.5039,-24.5078 -43.8423,-43.4998 -79.3343,-56.8344 43.8305,-14.3385 77.3265,-37.3345 100.334,-69.3304 22.8306,-31.8424 34.3345,-70.0037 34.3345,-114.165 0,-61.3344 -21.6731,-112.677 -64.8423,-154.334 -43.3345,-41.6691 -100.334,-62.5037 -170.999,-62.5037 -70.6651,0 -127.499,20.8346 -170.834,62.669 -43.3345,41.8345 -64.9958,93.9918 -64.9958,156.495 0,46.4998 11.8346,85.4997 35.5038,117 23.492,31.3345 57.1651,52.8305 100.83,64.169zm-17.6692 148.995c0,-33.8266 11.0078,-61.4998 32.6692,-82.9957 21.8385,-21.496 50.1612,-32.3385 85.0036,-32.3385 33.8266,0 61.6651,10.6653 83.3264,32.0077 21.6731,21.3306 32.3385,47.4919 32.3385,78.3304 0,32.3385 -11.0078,59.3383 -33.3306,81.3304 -22.3346,22.0039 -50.0077,32.9999 -83.3383,32.9999 -33.4959,0 -61.3344,-10.8307 -83.5036,-32.1613 -22.1574,-21.5078 -33.1652,-47.3384 -33.1652,-77.1729zm-28.3345 -330.66c0,-25.0038 5.99998,-49.3345 17.8346,-72.6729 11.8346,-23.492 29.5038,-41.6691 53.0077,-54.4958 23.492,-12.8385 48.6612,-19.3346 75.6611,-19.3346 41.9998,0 76.6651,13.4999 103.996,40.6652 27.3424,26.9999 41.0077,61.3344 41.0077,103.004 0,42.3305 -14.0078,77.3265 -42.1652,105 -28.1692,27.6613 -63.5076,41.5038 -105.838,41.5038 -41.3384,0 -75.4958,-13.6771 -102.661,-41.0077 -27.1771,-27.496 -40.8424,-61.6651 -40.8424,-102.661z"
           id="path3138-3-5" />
      </glyph>
      <glyph
         unicode="9"
         horiz-adv-x="556"
         id="glyph3144-80-8">
        <path
           d="M54.6612 165.495l84.5075 7.84249c7.16926,-39.6731 20.8346,-68.5037 40.9959,-86.5036 20.1731,-17.8346 46.0038,-26.8345 77.669,-26.8345 26.9999,0 50.6691,6.16533 70.9958,18.6613 20.3385,12.3425 37.0038,28.8424 50.0077,49.4998 13.1574,20.6692 23.9999,48.673 32.8345,83.669 8.65745,35.1731 13.1574,71.0076 13.1574,107.504 0,3.83857 -0.165354,9.83854 -0.496061,17.5039 -17.6692,-27.8385 -41.6691,-50.6691 -71.9997,-68.0076 -30.4959,-17.4921 -63.4958,-26.1613 -98.8343,-26.1613 -59.3265,0 -109.5,21.496 -150.495,64.4997 -41.0077,43.0038 -61.4998,99.4957 -61.4998,169.83 0,72.6729 21.3306,131.007 64.1572,175.334 42.8384,44.3384 96.5075,66.4958 161.007,66.4958 46.4998,0 88.9957,-12.6614 127.665,-37.6652 38.5038,-24.992 67.8304,-60.8265 87.8382,-107.161 19.996,-46.3345 29.9999,-113.503 29.9999,-201.507 0,-91.3225 -9.83854,-164.161 -29.6692,-218.491 -20.0078,-54.1651 -49.4998,-95.3382 -88.665,-123.673 -39.3424,-28.3345 -85.169,-42.4959 -137.999,-42.4959 -56.0077,0 -101.669,15.496 -137.173,46.6652 -35.5038,31.0038 -56.8344,74.669 -64.0037,130.996zm359.833 316.003c0,50.3384 -13.3228,90.5075 -40.1573,120 -26.9999,29.6692 -59.173,44.5038 -97.0036,44.5038 -38.9998,0 -73.0036,-16.0039 -102,-47.8345 -28.9959,-31.9959 -43.4998,-73.3344 -43.4998,-124.003 0,-45.6612 13.8307,-82.665 41.3384,-111.165 27.496,-28.4999 61.3226,-42.6612 101.657,-42.6612 40.8424,0 74.1729,14.1614 100.334,42.6612 26.3385,28.4999 39.3306,67.9958 39.3306,118.5z"
           id="path3142-4-6" />
      </glyph>
      <glyph
         unicode="3"
         horiz-adv-x="556"
         id="glyph3148-0-2">
        <path
           d="M41.9998 188.999l87.8382 11.6692c10.1574,-49.8305 27.3306,-85.665 51.4959,-107.669 24.3306,-22.0039 53.8344,-32.9999 88.665,-32.9999 41.3384,0 76.3343,14.3385 104.834,43.0038 28.3345,28.6652 42.6612,64.169 42.6612,106.5 0,40.3345 -13.1574,73.6651 -39.4959,99.8264 -26.5038,26.1731 -59.9998,39.3424 -100.665,39.3424 -16.6653,0 -37.3345,-3.34251 -61.9958,-9.83854l9.82673 77.1611c5.83462,-0.661415 10.5,-0.992122 14.1732,-0.992122 37.3345,0 70.9958,9.82673 100.996,29.3267 29.9999,19.4999 44.9998,49.6652 44.9998,90.3422 0,32.1613 -10.996,58.9958 -32.8345,79.9957 -21.8267,21.1653 -49.9959,31.8306 -84.4957,31.8306 -34.1692,0 -62.669,-10.8307 -85.3343,-32.1613 -22.8306,-21.5078 -37.4999,-53.8344 -44.0077,-96.8382l-87.8264 15.6732c10.6653,58.9958 35.1613,104.657 73.169,136.996 38.1613,32.3385 85.4997,48.6612 142.169,48.6612 38.9998,0 74.9997,-8.49209 107.822,-25.1574 32.8345,-16.8425 58.0037,-39.6731 75.5076,-68.669 17.3267,-28.9959 26.1613,-59.6691 26.1613,-92.3382 0,-30.8267 -8.32674,-58.9958 -24.992,-84.4957 -16.6771,-25.3345 -41.1731,-45.4959 -73.6769,-60.4958 42.3424,-9.67319 75.1769,-29.9999 98.6689,-60.8383 23.3385,-30.6613 35.0077,-69.1651 35.0077,-115.334 0,-62.5037 -22.6771,-115.5 -68.3383,-158.999 -45.4959,-43.4998 -103.169,-65.1612 -172.83,-65.1612 -62.8344,0 -115.003,18.6613 -156.507,56.1612 -41.492,37.3345 -65.1612,85.8304 -70.9958,145.499z"
           id="path3146-9-8" />
      </glyph>
      <glyph
         unicode="7"
         horiz-adv-x="556"
         id="glyph3152-1-4">
        <path
           d="M47.3384 622.001l0 84.4957 463.333 0 0 -68.3265c-45.5077,-48.5077 -90.6729,-113.007 -135.507,-193.334 -44.6691,-80.3383 -79.3343,-163.169 -103.665,-248.007 -17.6692,-59.9998 -28.8306,-125.492 -33.6613,-196.83l-90.3422 0c1.00393,56.3384 12,124.334 33.177,204.165 21.1653,79.665 51.4959,156.673 90.9918,230.668 39.6731,73.9958 81.6729,136.499 126.33,187.169l-350.656 0z"
           id="path3150-9-7" />
      </glyph>
      <glyph
         unicode="6"
         horiz-adv-x="556"
         id="glyph3156-6-2">
        <path
           d="M497.502 540.506l-87.3304 -6.83856c-7.84249,34.4999 -18.8385,59.6691 -33.177,75.1651 -23.8227,25.1692 -53.1612,37.6652 -87.9918,37.6652 -28.0038,0 -52.4998,-7.83068 -73.6651,-23.492 -27.6731,-20.1731 -49.4998,-49.677 -65.5037,-88.3343 -15.8385,-38.6691 -24.1653,-93.8382 -24.8385,-165.507 21.1653,32.1731 47.0077,56.173 77.669,71.8344 30.5078,15.496 62.669,23.3385 96.165,23.3385 58.6651,0 108.507,-21.5078 149.669,-64.6651 41.1731,-43.1691 61.8305,-98.8343 61.8305,-167.173 0,-44.9998 -9.82673,-86.669 -29.1613,-125.338 -19.3346,-38.492 -46.0038,-68.1611 -79.8304,-88.665 -33.8384,-20.492 -72.1651,-30.6613 -115.169,-30.6613 -73.3344,0 -133.003,26.8345 -179.173,80.8343 -46.3345,53.8344 -69.3304,142.665 -69.3304,266.326 0,138.342 25.4999,238.842 76.6651,301.676 44.5038,54.6612 104.504,82.1572 180.165,82.1572 56.173,0 102.342,-15.8267 138.342,-47.4919 35.9999,-31.4999 57.4958,-75.1651 64.6651,-130.83zm-358.841 -308.503c0,-30.3306 6.50785,-59.3383 19.3346,-86.9997 12.8385,-27.6731 30.8385,-48.673 53.8344,-63.1651 23.1731,-14.5039 47.5037,-21.8385 72.8383,-21.8385 37.1691,0 68.9997,14.9999 95.6689,44.9998 26.6574,29.9999 39.992,70.6651 39.992,121.996 0,49.4998 -13.1574,88.4997 -39.4959,117 -26.3385,28.4999 -59.5037,42.6731 -99.4957,42.6731 -39.8384,0 -73.4997,-14.1732 -101.173,-42.6731 -27.6613,-28.4999 -41.5038,-65.8226 -41.5038,-111.992z"
           id="path3154-2-4" />
      </glyph>
      <glyph
         unicode="5"
         horiz-adv-x="556"
         id="glyph3160-5-0">
        <path
           d="M41.5038 187.499l92.3264 7.83068c6.83856,-44.9998 22.6653,-78.6611 47.5037,-101.326 25.0038,-22.6653 55.0037,-34.0038 90.165,-34.0038 42.3305,0 78.165,16.0039 107.338,47.8345 29.3267,31.9959 43.9959,74.3383 43.9959,127.003 0,50.1612 -13.996,89.6571 -42.1652,118.665 -28.1692,28.9959 -64.9958,43.4998 -110.669,43.4998 -28.3345,0 -53.8344,-6.50785 -76.6651,-19.3346 -22.8306,-12.8385 -40.6652,-29.5038 -53.6691,-49.9959l-82.4997 10.6653 69.3304 367.664 356.006 0 0 -83.9997 -285.672 0 -38.6691 -192.33c43.0038,29.9999 88.1689,44.9998 135.342,44.9998 62.4919,0 115.169,-21.6731 158.161,-65.0076 43.0038,-43.3345 64.4997,-98.9996 64.4997,-166.995 0,-64.8305 -18.9921,-120.838 -56.6691,-167.999 -45.9919,-57.8384 -108.661,-86.8343 -187.995,-86.8343 -65.1612,0 -118.334,18.1653 -159.495,54.6612 -41.1731,36.5077 -64.6651,84.8382 -70.4997,145.003z"
           id="path3158-4-6" />
      </glyph>
      <glyph
         unicode="0"
         horiz-adv-x="556"
         id="glyph3164-4-2">
        <path
           d="M41.5038 352.995c0,84.6729 8.65745,152.834 26.1613,204.342 17.3385,51.6612 43.3345,91.4996 77.669,119.492 34.3345,28.0038 77.5036,41.9998 129.496,41.9998 38.5038,0 72.1651,-7.83068 101.173,-23.3267 28.9959,-15.3306 52.8305,-37.6652 71.8344,-66.8383 18.8267,-29.1613 33.6613,-64.6651 44.3266,-106.5 10.8425,-41.8345 16.1692,-98.161 16.1692,-169.169 0,-83.9997 -8.66926,-151.665 -25.8306,-203.326 -17.3385,-51.673 -43.1691,-91.4996 -77.5036,-119.669 -34.3345,-28.1692 -77.669,-42.1652 -130.169,-42.1652 -68.9997,0 -123.165,24.6613 -162.495,74.1611 -47.173,59.5037 -70.8304,156.673 -70.8304,290.999zm90.3304 0c0,-117.496 13.8307,-195.661 41.3384,-234.66 27.496,-38.8345 61.3226,-58.3344 101.657,-58.3344 40.4998,0 74.3383,19.6653 101.834,58.6651 27.5078,38.9998 41.3384,117.165 41.3384,234.33 0,117.838 -13.8307,196.169 -41.3384,234.838 -27.496,38.8345 -61.6651,58.1691 -102.661,58.1691 -40.4998,0 -72.6729,-17.1732 -96.8382,-51.3305 -30.1652,-43.4998 -45.3305,-124.169 -45.3305,-241.676z"
           id="path3162-9-9" />
      </glyph>
      <glyph
         unicode="4"
         horiz-adv-x="556"
         id="glyph3168-9-9">
        <path
           d="M323.172 0l0 171.33 -310.511 0 0 80.669 326.668 463.829 71.8344 0 0 -463.829 96.6728 0 0 -80.669 -96.6728 0 0 -171.33 -87.9918 0zm0 251.999l0 322.664 -224.007 -322.664 224.007 0z"
           id="path3166-3-0" />
      </glyph>
    </font>
    <style
       type="text/css"
       id="style3171-6-8"><![CDATA[
    @font-face { font-family:"Arial";src:url("#FontID0") format(svg)}
    .str0 {stroke:black;stroke-width:20}
    .str1 {stroke:black;stroke-width:50}
    .str4 {stroke:black;stroke-width:75}
    .str5 {stroke:#00CCFF;stroke-width:75}
    .str3 {stroke:#99FF00;stroke-width:75}
    .str2 {stroke:red;stroke-width:75;stroke-linejoin:round}
    .fil2 {fill:none}
    .fil6 {fill:#E31E24}
    .fil0 {fill:black}
    .fil4 {fill:#00CCFF}
    .fil5 {fill:lime}
    .fil3 {fill:black;fill-rule:nonzero}
    .fil1 {fill:url(#id0)}
    .fnt0 {font-weight:normal;font-size:846.67;font-family:'Arial'}
   ]]></style>
    <inkscape:perspective
       sodipodi:type="inkscape:persp3d"
       inkscape:vp_x="0 : 295.5 : 1"
       inkscape:vp_y="0 : 1000 : 0"
       inkscape:vp_z="764 : 295.5 : 1"
       inkscape:persp3d-origin="382 : 197 : 1"
       id="perspective194-5-1" />
    <inkscape:perspective
       id="perspective377-3-6"
       inkscape:persp3d-origin="384 : 75 : 1"
       inkscape:vp_z="768 : 112.5 : 1"
       inkscape:vp_y="0 : 1000 : 0"
       inkscape:vp_x="0 : 112.5 : 1"
       sodipodi:type="inkscape:persp3d" />
    <font
       font-weight="400"
       font-style="normal"
       font-variant="normal"
       horiz-adv-x="667"
       id="FontID0-5-9"
       horiz-origin-x="0"
       horiz-origin-y="0"
       vert-origin-x="45"
       vert-origin-y="90"
       vert-adv-y="90"
       style="font-style:normal;font-variant:normal;font-weight:400">
      <font-face
         id="font-face3132-5-3"
         font-family="Arial" />
      <missing-glyph
         id="missing-glyph3136-2-3">
        <path
           id="path3134-9-8"
           d="M0 0z" />
      </missing-glyph>
      <glyph
         id="glyph3140-0-0"
         horiz-adv-x="556"
         unicode="8">
        <path
           id="path3138-2-5"
           d="M176.834 388.168c-36.4959,13.3346 -63.4958,32.3266 -81.165,57.1651 -17.5039,24.6613 -26.3385,54.3305 -26.3385,88.8304 0,52.1691 18.6732,95.8343 56.173,131.338 37.4999,35.5038 87.165,53.3266 149.326,53.3266 62.5037,0 112.842,-18.1653 151.003,-54.4958 37.9959,-36.3306 56.9998,-80.5036 56.9998,-132.661 0,-33.177 -8.66926,-62.0076 -25.996,-86.669 -17.5039,-24.5078 -43.8423,-43.4998 -79.3343,-56.8344 43.8305,-14.3385 77.3265,-37.3345 100.334,-69.3304 22.8306,-31.8424 34.3345,-70.0037 34.3345,-114.165 0,-61.3344 -21.6731,-112.677 -64.8423,-154.334 -43.3345,-41.6691 -100.334,-62.5037 -170.999,-62.5037 -70.6651,0 -127.499,20.8346 -170.834,62.669 -43.3345,41.8345 -64.9958,93.9918 -64.9958,156.495 0,46.4998 11.8346,85.4997 35.5038,117 23.492,31.3345 57.1651,52.8305 100.83,64.169zm-17.6692 148.995c0,-33.8266 11.0078,-61.4998 32.6692,-82.9957 21.8385,-21.496 50.1612,-32.3385 85.0036,-32.3385 33.8266,0 61.6651,10.6653 83.3264,32.0077 21.6731,21.3306 32.3385,47.4919 32.3385,78.3304 0,32.3385 -11.0078,59.3383 -33.3306,81.3304 -22.3346,22.0039 -50.0077,32.9999 -83.3383,32.9999 -33.4959,0 -61.3344,-10.8307 -83.5036,-32.1613 -22.1574,-21.5078 -33.1652,-47.3384 -33.1652,-77.1729zm-28.3345 -330.66c0,-25.0038 5.99998,-49.3345 17.8346,-72.6729 11.8346,-23.492 29.5038,-41.6691 53.0077,-54.4958 23.492,-12.8385 48.6612,-19.3346 75.6611,-19.3346 41.9998,0 76.6651,13.4999 103.996,40.6652 27.3424,26.9999 41.0077,61.3344 41.0077,103.004 0,42.3305 -14.0078,77.3265 -42.1652,105 -28.1692,27.6613 -63.5076,41.5038 -105.838,41.5038 -41.3384,0 -75.4958,-13.6771 -102.661,-41.0077 -27.1771,-27.496 -40.8424,-61.6651 -40.8424,-102.661z" />
      </glyph>
      <glyph
         id="glyph3144-8-6"
         horiz-adv-x="556"
         unicode="9">
        <path
           id="path3142-3-6"
           d="M54.6612 165.495l84.5075 7.84249c7.16926,-39.6731 20.8346,-68.5037 40.9959,-86.5036 20.1731,-17.8346 46.0038,-26.8345 77.669,-26.8345 26.9999,0 50.6691,6.16533 70.9958,18.6613 20.3385,12.3425 37.0038,28.8424 50.0077,49.4998 13.1574,20.6692 23.9999,48.673 32.8345,83.669 8.65745,35.1731 13.1574,71.0076 13.1574,107.504 0,3.83857 -0.165354,9.83854 -0.496061,17.5039 -17.6692,-27.8385 -41.6691,-50.6691 -71.9997,-68.0076 -30.4959,-17.4921 -63.4958,-26.1613 -98.8343,-26.1613 -59.3265,0 -109.5,21.496 -150.495,64.4997 -41.0077,43.0038 -61.4998,99.4957 -61.4998,169.83 0,72.6729 21.3306,131.007 64.1572,175.334 42.8384,44.3384 96.5075,66.4958 161.007,66.4958 46.4998,0 88.9957,-12.6614 127.665,-37.6652 38.5038,-24.992 67.8304,-60.8265 87.8382,-107.161 19.996,-46.3345 29.9999,-113.503 29.9999,-201.507 0,-91.3225 -9.83854,-164.161 -29.6692,-218.491 -20.0078,-54.1651 -49.4998,-95.3382 -88.665,-123.673 -39.3424,-28.3345 -85.169,-42.4959 -137.999,-42.4959 -56.0077,0 -101.669,15.496 -137.173,46.6652 -35.5038,31.0038 -56.8344,74.669 -64.0037,130.996zm359.833 316.003c0,50.3384 -13.3228,90.5075 -40.1573,120 -26.9999,29.6692 -59.173,44.5038 -97.0036,44.5038 -38.9998,0 -73.0036,-16.0039 -102,-47.8345 -28.9959,-31.9959 -43.4998,-73.3344 -43.4998,-124.003 0,-45.6612 13.8307,-82.665 41.3384,-111.165 27.496,-28.4999 61.3226,-42.6612 101.657,-42.6612 40.8424,0 74.1729,14.1614 100.334,42.6612 26.3385,28.4999 39.3306,67.9958 39.3306,118.5z" />
      </glyph>
      <glyph
         id="glyph3148-8-4"
         horiz-adv-x="556"
         unicode="3">
        <path
           id="path3146-0-0"
           d="M41.9998 188.999l87.8382 11.6692c10.1574,-49.8305 27.3306,-85.665 51.4959,-107.669 24.3306,-22.0039 53.8344,-32.9999 88.665,-32.9999 41.3384,0 76.3343,14.3385 104.834,43.0038 28.3345,28.6652 42.6612,64.169 42.6612,106.5 0,40.3345 -13.1574,73.6651 -39.4959,99.8264 -26.5038,26.1731 -59.9998,39.3424 -100.665,39.3424 -16.6653,0 -37.3345,-3.34251 -61.9958,-9.83854l9.82673 77.1611c5.83462,-0.661415 10.5,-0.992122 14.1732,-0.992122 37.3345,0 70.9958,9.82673 100.996,29.3267 29.9999,19.4999 44.9998,49.6652 44.9998,90.3422 0,32.1613 -10.996,58.9958 -32.8345,79.9957 -21.8267,21.1653 -49.9959,31.8306 -84.4957,31.8306 -34.1692,0 -62.669,-10.8307 -85.3343,-32.1613 -22.8306,-21.5078 -37.4999,-53.8344 -44.0077,-96.8382l-87.8264 15.6732c10.6653,58.9958 35.1613,104.657 73.169,136.996 38.1613,32.3385 85.4997,48.6612 142.169,48.6612 38.9998,0 74.9997,-8.49209 107.822,-25.1574 32.8345,-16.8425 58.0037,-39.6731 75.5076,-68.669 17.3267,-28.9959 26.1613,-59.6691 26.1613,-92.3382 0,-30.8267 -8.32674,-58.9958 -24.992,-84.4957 -16.6771,-25.3345 -41.1731,-45.4959 -73.6769,-60.4958 42.3424,-9.67319 75.1769,-29.9999 98.6689,-60.8383 23.3385,-30.6613 35.0077,-69.1651 35.0077,-115.334 0,-62.5037 -22.6771,-115.5 -68.3383,-158.999 -45.4959,-43.4998 -103.169,-65.1612 -172.83,-65.1612 -62.8344,0 -115.003,18.6613 -156.507,56.1612 -41.492,37.3345 -65.1612,85.8304 -70.9958,145.499z" />
      </glyph>
      <glyph
         id="glyph3152-4-0"
         horiz-adv-x="556"
         unicode="7">
        <path
           id="path3150-0-4"
           d="M47.3384 622.001l0 84.4957 463.333 0 0 -68.3265c-45.5077,-48.5077 -90.6729,-113.007 -135.507,-193.334 -44.6691,-80.3383 -79.3343,-163.169 -103.665,-248.007 -17.6692,-59.9998 -28.8306,-125.492 -33.6613,-196.83l-90.3422 0c1.00393,56.3384 12,124.334 33.177,204.165 21.1653,79.665 51.4959,156.673 90.9918,230.668 39.6731,73.9958 81.6729,136.499 126.33,187.169l-350.656 0z" />
      </glyph>
      <glyph
         id="glyph3156-9-6"
         horiz-adv-x="556"
         unicode="6">
        <path
           id="path3154-1-2"
           d="M497.502 540.506l-87.3304 -6.83856c-7.84249,34.4999 -18.8385,59.6691 -33.177,75.1651 -23.8227,25.1692 -53.1612,37.6652 -87.9918,37.6652 -28.0038,0 -52.4998,-7.83068 -73.6651,-23.492 -27.6731,-20.1731 -49.4998,-49.677 -65.5037,-88.3343 -15.8385,-38.6691 -24.1653,-93.8382 -24.8385,-165.507 21.1653,32.1731 47.0077,56.173 77.669,71.8344 30.5078,15.496 62.669,23.3385 96.165,23.3385 58.6651,0 108.507,-21.5078 149.669,-64.6651 41.1731,-43.1691 61.8305,-98.8343 61.8305,-167.173 0,-44.9998 -9.82673,-86.669 -29.1613,-125.338 -19.3346,-38.492 -46.0038,-68.1611 -79.8304,-88.665 -33.8384,-20.492 -72.1651,-30.6613 -115.169,-30.6613 -73.3344,0 -133.003,26.8345 -179.173,80.8343 -46.3345,53.8344 -69.3304,142.665 -69.3304,266.326 0,138.342 25.4999,238.842 76.6651,301.676 44.5038,54.6612 104.504,82.1572 180.165,82.1572 56.173,0 102.342,-15.8267 138.342,-47.4919 35.9999,-31.4999 57.4958,-75.1651 64.6651,-130.83zm-358.841 -308.503c0,-30.3306 6.50785,-59.3383 19.3346,-86.9997 12.8385,-27.6731 30.8385,-48.673 53.8344,-63.1651 23.1731,-14.5039 47.5037,-21.8385 72.8383,-21.8385 37.1691,0 68.9997,14.9999 95.6689,44.9998 26.6574,29.9999 39.992,70.6651 39.992,121.996 0,49.4998 -13.1574,88.4997 -39.4959,117 -26.3385,28.4999 -59.5037,42.6731 -99.4957,42.6731 -39.8384,0 -73.4997,-14.1732 -101.173,-42.6731 -27.6613,-28.4999 -41.5038,-65.8226 -41.5038,-111.992z" />
      </glyph>
      <glyph
         id="glyph3160-9-6"
         horiz-adv-x="556"
         unicode="5">
        <path
           id="path3158-6-7"
           d="M41.5038 187.499l92.3264 7.83068c6.83856,-44.9998 22.6653,-78.6611 47.5037,-101.326 25.0038,-22.6653 55.0037,-34.0038 90.165,-34.0038 42.3305,0 78.165,16.0039 107.338,47.8345 29.3267,31.9959 43.9959,74.3383 43.9959,127.003 0,50.1612 -13.996,89.6571 -42.1652,118.665 -28.1692,28.9959 -64.9958,43.4998 -110.669,43.4998 -28.3345,0 -53.8344,-6.50785 -76.6651,-19.3346 -22.8306,-12.8385 -40.6652,-29.5038 -53.6691,-49.9959l-82.4997 10.6653 69.3304 367.664 356.006 0 0 -83.9997 -285.672 0 -38.6691 -192.33c43.0038,29.9999 88.1689,44.9998 135.342,44.9998 62.4919,0 115.169,-21.6731 158.161,-65.0076 43.0038,-43.3345 64.4997,-98.9996 64.4997,-166.995 0,-64.8305 -18.9921,-120.838 -56.6691,-167.999 -45.9919,-57.8384 -108.661,-86.8343 -187.995,-86.8343 -65.1612,0 -118.334,18.1653 -159.495,54.6612 -41.1731,36.5077 -64.6651,84.8382 -70.4997,145.003z" />
      </glyph>
      <glyph
         id="glyph3164-2-5"
         horiz-adv-x="556"
         unicode="0">
        <path
           id="path3162-5-6"
           d="M41.5038 352.995c0,84.6729 8.65745,152.834 26.1613,204.342 17.3385,51.6612 43.3345,91.4996 77.669,119.492 34.3345,28.0038 77.5036,41.9998 129.496,41.9998 38.5038,0 72.1651,-7.83068 101.173,-23.3267 28.9959,-15.3306 52.8305,-37.6652 71.8344,-66.8383 18.8267,-29.1613 33.6613,-64.6651 44.3266,-106.5 10.8425,-41.8345 16.1692,-98.161 16.1692,-169.169 0,-83.9997 -8.66926,-151.665 -25.8306,-203.326 -17.3385,-51.673 -43.1691,-91.4996 -77.5036,-119.669 -34.3345,-28.1692 -77.669,-42.1652 -130.169,-42.1652 -68.9997,0 -123.165,24.6613 -162.495,74.1611 -47.173,59.5037 -70.8304,156.673 -70.8304,290.999zm90.3304 0c0,-117.496 13.8307,-195.661 41.3384,-234.66 27.496,-38.8345 61.3226,-58.3344 101.657,-58.3344 40.4998,0 74.3383,19.6653 101.834,58.6651 27.5078,38.9998 41.3384,117.165 41.3384,234.33 0,117.838 -13.8307,196.169 -41.3384,234.838 -27.496,38.8345 -61.6651,58.1691 -102.661,58.1691 -40.4998,0 -72.6729,-17.1732 -96.8382,-51.3305 -30.1652,-43.4998 -45.3305,-124.169 -45.3305,-241.676z" />
      </glyph>
      <glyph
         id="glyph3168-4-9"
         horiz-adv-x="556"
         unicode="4">
        <path
           id="path3166-4-8"
           d="M323.172 0l0 171.33 -310.511 0 0 80.669 326.668 463.829 71.8344 0 0 -463.829 96.6728 0 0 -80.669 -96.6728 0 0 -171.33 -87.9918 0zm0 251.999l0 322.664 -224.007 -322.664 224.007 0z" />
      </glyph>
    </font>
    <style
       id="style3171-9-7"
       type="text/css"><![CDATA[
    @font-face { font-family:"Arial";src:url("#FontID0") format(svg)}
    .str0 {stroke:black;stroke-width:20}
    .str1 {stroke:black;stroke-width:50}
    .str4 {stroke:black;stroke-width:75}
    .str5 {stroke:#00CCFF;stroke-width:75}
    .str3 {stroke:#99FF00;stroke-width:75}
    .str2 {stroke:red;stroke-width:75;stroke-linejoin:round}
    .fil2 {fill:none}
    .fil6 {fill:#E31E24}
    .fil0 {fill:black}
    .fil4 {fill:#00CCFF}
    .fil5 {fill:lime}
    .fil3 {fill:black;fill-rule:nonzero}
    .fil1 {fill:url(#id0)}
    .fnt0 {font-weight:normal;font-size:846.67;font-family:'Arial'}
   ]]></style>
    <inkscape:perspective
       id="perspective194-9-2"
       inkscape:persp3d-origin="382 : 197 : 1"
       inkscape:vp_z="764 : 295.5 : 1"
       inkscape:vp_y="0 : 1000 : 0"
       inkscape:vp_x="0 : 295.5 : 1"
       sodipodi:type="inkscape:persp3d" />
    <marker
       style="overflow:visible;"
       id="marker4205-0"
       refX="0.0"
       refY="0.0"
       orient="auto"
       inkscape:stockid="Arrow2Mend"
       inkscape:isstock="true">
      <path
         transform="scale(0.6) rotate(180) translate(0,0)"
         d="M 8.7185878,4.0337352 L -2.2072895,0.016013256 L 8.7185884,-4.0017078 C 6.9730900,-1.6296469 6.9831476,1.6157441 8.7185878,4.0337352 z "
         style="fill-rule:evenodd;stroke-width:0.625;stroke-linejoin:round;stroke:#0002ff;stroke-opacity:1;fill:#0002ff;fill-opacity:1"
         id="path4203-4" />
    </marker>
    <marker
       style="overflow:visible;"
       id="marker3541-2"
       refX="0.0"
       refY="0.0"
       orient="auto"
       inkscape:stockid="Arrow2Mend"
       inkscape:isstock="true">
      <path
         transform="scale(0.6) rotate(180) translate(0,0)"
         d="M 8.7185878,4.0337352 L -2.2072895,0.016013256 L 8.7185884,-4.0017078 C 6.9730900,-1.6296469 6.9831476,1.6157441 8.7185878,4.0337352 z "
         style="fill-rule:evenodd;stroke-width:0.625;stroke-linejoin:round;stroke:#00ff7f;stroke-opacity:1;fill:#00ff7f;fill-opacity:1"
         id="path3539-2" />
    </marker>
    <marker
       style="overflow:visible;"
       id="marker2693-2"
       refX="0.0"
       refY="0.0"
       orient="auto"
       inkscape:stockid="Arrow2Send"
       inkscape:isstock="true">
      <path
         transform="scale(0.3) rotate(180) translate(-2.3,0)"
         d="M 8.7185878,4.0337352 L -2.2072895,0.016013256 L 8.7185884,-4.0017078 C 6.9730900,-1.6296469 6.9831476,1.6157441 8.7185878,4.0337352 z "
         style="fill-rule:evenodd;stroke-width:0.625;stroke-linejoin:round;stroke:#ff0000;stroke-opacity:1;fill:#ff0000;fill-opacity:1"
         id="path2691-0" />
    </marker>
    <marker
       style="overflow:visible;"
       id="marker2617-5"
       refX="0.0"
       refY="0.0"
       orient="auto"
       inkscape:stockid="Arrow2Mend"
       inkscape:isstock="true">
      <path
         transform="scale(0.6) rotate(180) translate(0,0)"
         d="M 8.7185878,4.0337352 L -2.2072895,0.016013256 L 8.7185884,-4.0017078 C 6.9730900,-1.6296469 6.9831476,1.6157441 8.7185878,4.0337352 z "
         style="fill-rule:evenodd;stroke-width:0.625;stroke-linejoin:round;stroke:#ff0000;stroke-opacity:1;fill:#ff0000;fill-opacity:1"
         id="path2615-5" />
    </marker>
    <marker
       style="overflow:visible"
       id="TriangleOutM-2"
       refX="0.0"
       refY="0.0"
       orient="auto"
       inkscape:stockid="TriangleOutM"
       inkscape:isstock="true">
      <path
         transform="scale(0.4)"
         style="fill-rule:evenodd;stroke:#ff0000;stroke-width:1pt;stroke-opacity:1;fill:#ff0000;fill-opacity:1"
         d="M 5.77,0.0 L -2.88,5.0 L -2.88,-5.0 L 5.77,0.0 z "
         id="path2028-9" />
    </marker>
    <marker
       style="overflow:visible;"
       id="Arrow2Send-0"
       refX="0.0"
       refY="0.0"
       orient="auto"
       inkscape:stockid="Arrow2Send"
       inkscape:isstock="true">
      <path
         transform="scale(0.3) rotate(180) translate(-2.3,0)"
         d="M 8.7185878,4.0337352 L -2.2072895,0.016013256 L 8.7185884,-4.0017078 C 6.9730900,-1.6296469 6.9831476,1.6157441 8.7185878,4.0337352 z "
         style="fill-rule:evenodd;stroke-width:0.625;stroke-linejoin:round;stroke:#ff0000;stroke-opacity:1;fill:#ff0000;fill-opacity:1"
         id="path1916-2" />
    </marker>
    <marker
       style="overflow:visible;"
       id="Arrow2Mend-8"
       refX="0.0"
       refY="0.0"
       orient="auto"
       inkscape:stockid="Arrow2Mend"
       inkscape:isstock="true">
      <path
         transform="scale(0.6) rotate(180) translate(0,0)"
         d="M 8.7185878,4.0337352 L -2.2072895,0.016013256 L 8.7185884,-4.0017078 C 6.9730900,-1.6296469 6.9831476,1.6157441 8.7185878,4.0337352 z "
         style="fill-rule:evenodd;stroke-width:0.625;stroke-linejoin:round;stroke:#ff0000;stroke-opacity:1;fill:#ff0000;fill-opacity:1"
         id="path1910-3" />
    </marker>
    <marker
       style="overflow:visible;"
       id="marker2379-8"
       refX="0.0"
       refY="0.0"
       orient="auto"
       inkscape:stockid="Arrow2Lend"
       inkscape:isstock="true">
      <path
         transform="scale(1.1) rotate(180) translate(1,0)"
         d="M 8.7185878,4.0337352 L -2.2072895,0.016013256 L 8.7185884,-4.0017078 C 6.9730900,-1.6296469 6.9831476,1.6157441 8.7185878,4.0337352 z "
         style="fill-rule:evenodd;stroke-width:0.625;stroke-linejoin:round;stroke:#ff0000;stroke-opacity:1;fill:#ff0000;fill-opacity:1"
         id="path2377-0" />
    </marker>
    <marker
       style="overflow:visible;"
       id="marker2333-4"
       refX="0.0"
       refY="0.0"
       orient="auto"
       inkscape:stockid="Arrow1Mend"
       inkscape:isstock="true">
      <path
         transform="scale(0.4) rotate(180) translate(10,0)"
         style="fill-rule:evenodd;stroke:#ff0000;stroke-width:1pt;stroke-opacity:1;fill:#ff0000;fill-opacity:1"
         d="M 0.0,0.0 L 5.0,-5.0 L -12.5,0.0 L 5.0,5.0 L 0.0,0.0 z "
         id="path2331-0" />
    </marker>
    <marker
       style="overflow:visible;"
       id="marker2293-9"
       refX="0.0"
       refY="0.0"
       orient="auto"
       inkscape:stockid="Arrow1Lend"
       inkscape:isstock="true">
      <path
         transform="scale(0.8) rotate(180) translate(12.5,0)"
         style="fill-rule:evenodd;stroke:#ff0000;stroke-width:1pt;stroke-opacity:1;fill:#ff0000;fill-opacity:1"
         d="M 0.0,0.0 L 5.0,-5.0 L -12.5,0.0 L 5.0,5.0 L 0.0,0.0 z "
         id="path2291-1" />
    </marker>
    <marker
       style="overflow:visible;"
       id="Arrow2Lend-9"
       refX="0.0"
       refY="0.0"
       orient="auto"
       inkscape:stockid="Arrow2Lend"
       inkscape:isstock="true">
      <path
         transform="scale(1.1) rotate(180) translate(1,0)"
         d="M 8.7185878,4.0337352 L -2.2072895,0.016013256 L 8.7185884,-4.0017078 C 6.9730900,-1.6296469 6.9831476,1.6157441 8.7185878,4.0337352 z "
         style="fill-rule:evenodd;stroke-width:0.625;stroke-linejoin:round;stroke:#ff0000;stroke-opacity:1;fill:#ff0000;fill-opacity:1"
         id="path1904-6" />
    </marker>
    <marker
       style="overflow:visible;"
       id="Arrow1Mend-2"
       refX="0.0"
       refY="0.0"
       orient="auto"
       inkscape:stockid="Arrow1Mend"
       inkscape:isstock="true">
      <path
         transform="scale(0.4) rotate(180) translate(10,0)"
         style="fill-rule:evenodd;stroke:#ff0000;stroke-width:1pt;stroke-opacity:1;fill:#ff0000;fill-opacity:1"
         d="M 0.0,0.0 L 5.0,-5.0 L -12.5,0.0 L 5.0,5.0 L 0.0,0.0 z "
         id="path1892-5" />
    </marker>
    <marker
       style="overflow:visible;"
       id="Arrow1Send-4"
       refX="0.0"
       refY="0.0"
       orient="auto"
       inkscape:stockid="Arrow1Send"
       inkscape:isstock="true">
      <path
         transform="scale(0.2) rotate(180) translate(6,0)"
         style="fill-rule:evenodd;stroke:#ff0000;stroke-width:1pt;stroke-opacity:1;fill:#ff0000;fill-opacity:1"
         d="M 0.0,0.0 L 5.0,-5.0 L -12.5,0.0 L 5.0,5.0 L 0.0,0.0 z "
         id="path1898-4" />
    </marker>
    <marker
       style="overflow:visible;"
       id="Arrow1Lend-9"
       refX="0.0"
       refY="0.0"
       orient="auto"
       inkscape:stockid="Arrow1Lend"
       inkscape:isstock="true">
      <path
         transform="scale(0.8) rotate(180) translate(12.5,0)"
         style="fill-rule:evenodd;stroke:#ff0000;stroke-width:1pt;stroke-opacity:1;fill:#ff0000;fill-opacity:1"
         d="M 0.0,0.0 L 5.0,-5.0 L -12.5,0.0 L 5.0,5.0 L 0.0,0.0 z "
         id="path1886-9" />
    </marker>
    <linearGradient
       x1="139.22789"
       y1="-1671.507"
       x2="292.34399"
       y2="-1671.507"
       id="a-3"
       gradientUnits="userSpaceOnUse"
       gradientTransform="matrix(-4.0104207,0,0,-0.43614208,1504.5116,-611.30959)">
      <stop
         offset="0"
         stop-color="#00f"
         id="stop6-6"
         style="stop-color:#0fa3eb;stop-opacity:1" />
      <stop
         offset="0.5"
         stop-color="#80ff00"
         id="stop16-0"
         style="stop-color:#ffffff;stop-opacity:1" />
      <stop
         offset="1"
         stop-color="maroon"
         id="stop24-5"
         style="stop-color:#fe5204;stop-opacity:1" />
    </linearGradient>
    <inkscape:perspective
       id="perspective377-0"
       inkscape:persp3d-origin="384 : 75 : 1"
       inkscape:vp_z="768 : 112.5 : 1"
       inkscape:vp_y="0 : 1000 : 0"
       inkscape:vp_x="0 : 112.5 : 1"
       sodipodi:type="inkscape:persp3d" />
    <font
       font-weight="400"
       font-style="normal"
       style="fill-rule:nonzero"
       font-variant="normal"
       horiz-adv-x="667"
       id="FontID0-6">
      <font-face
         id="font-face3132-7"
         font-family="Arial" />
      <missing-glyph
         id="missing-glyph3136-6">
        <path
           id="path3134-0"
           d="M0 0z" />
      </missing-glyph>
      <glyph
         id="glyph3140-9"
         horiz-adv-x="556"
         unicode="8">
        <path
           id="path3138-7"
           d="M176.834 388.168c-36.4959,13.3346 -63.4958,32.3266 -81.165,57.1651 -17.5039,24.6613 -26.3385,54.3305 -26.3385,88.8304 0,52.1691 18.6732,95.8343 56.173,131.338 37.4999,35.5038 87.165,53.3266 149.326,53.3266 62.5037,0 112.842,-18.1653 151.003,-54.4958 37.9959,-36.3306 56.9998,-80.5036 56.9998,-132.661 0,-33.177 -8.66926,-62.0076 -25.996,-86.669 -17.5039,-24.5078 -43.8423,-43.4998 -79.3343,-56.8344 43.8305,-14.3385 77.3265,-37.3345 100.334,-69.3304 22.8306,-31.8424 34.3345,-70.0037 34.3345,-114.165 0,-61.3344 -21.6731,-112.677 -64.8423,-154.334 -43.3345,-41.6691 -100.334,-62.5037 -170.999,-62.5037 -70.6651,0 -127.499,20.8346 -170.834,62.669 -43.3345,41.8345 -64.9958,93.9918 -64.9958,156.495 0,46.4998 11.8346,85.4997 35.5038,117 23.492,31.3345 57.1651,52.8305 100.83,64.169zm-17.6692 148.995c0,-33.8266 11.0078,-61.4998 32.6692,-82.9957 21.8385,-21.496 50.1612,-32.3385 85.0036,-32.3385 33.8266,0 61.6651,10.6653 83.3264,32.0077 21.6731,21.3306 32.3385,47.4919 32.3385,78.3304 0,32.3385 -11.0078,59.3383 -33.3306,81.3304 -22.3346,22.0039 -50.0077,32.9999 -83.3383,32.9999 -33.4959,0 -61.3344,-10.8307 -83.5036,-32.1613 -22.1574,-21.5078 -33.1652,-47.3384 -33.1652,-77.1729zm-28.3345 -330.66c0,-25.0038 5.99998,-49.3345 17.8346,-72.6729 11.8346,-23.492 29.5038,-41.6691 53.0077,-54.4958 23.492,-12.8385 48.6612,-19.3346 75.6611,-19.3346 41.9998,0 76.6651,13.4999 103.996,40.6652 27.3424,26.9999 41.0077,61.3344 41.0077,103.004 0,42.3305 -14.0078,77.3265 -42.1652,105 -28.1692,27.6613 -63.5076,41.5038 -105.838,41.5038 -41.3384,0 -75.4958,-13.6771 -102.661,-41.0077 -27.1771,-27.496 -40.8424,-61.6651 -40.8424,-102.661z" />
      </glyph>
      <glyph
         id="glyph3144-5"
         horiz-adv-x="556"
         unicode="9">
        <path
           id="path3142-9"
           d="M54.6612 165.495l84.5075 7.84249c7.16926,-39.6731 20.8346,-68.5037 40.9959,-86.5036 20.1731,-17.8346 46.0038,-26.8345 77.669,-26.8345 26.9999,0 50.6691,6.16533 70.9958,18.6613 20.3385,12.3425 37.0038,28.8424 50.0077,49.4998 13.1574,20.6692 23.9999,48.673 32.8345,83.669 8.65745,35.1731 13.1574,71.0076 13.1574,107.504 0,3.83857 -0.165354,9.83854 -0.496061,17.5039 -17.6692,-27.8385 -41.6691,-50.6691 -71.9997,-68.0076 -30.4959,-17.4921 -63.4958,-26.1613 -98.8343,-26.1613 -59.3265,0 -109.5,21.496 -150.495,64.4997 -41.0077,43.0038 -61.4998,99.4957 -61.4998,169.83 0,72.6729 21.3306,131.007 64.1572,175.334 42.8384,44.3384 96.5075,66.4958 161.007,66.4958 46.4998,0 88.9957,-12.6614 127.665,-37.6652 38.5038,-24.992 67.8304,-60.8265 87.8382,-107.161 19.996,-46.3345 29.9999,-113.503 29.9999,-201.507 0,-91.3225 -9.83854,-164.161 -29.6692,-218.491 -20.0078,-54.1651 -49.4998,-95.3382 -88.665,-123.673 -39.3424,-28.3345 -85.169,-42.4959 -137.999,-42.4959 -56.0077,0 -101.669,15.496 -137.173,46.6652 -35.5038,31.0038 -56.8344,74.669 -64.0037,130.996zm359.833 316.003c0,50.3384 -13.3228,90.5075 -40.1573,120 -26.9999,29.6692 -59.173,44.5038 -97.0036,44.5038 -38.9998,0 -73.0036,-16.0039 -102,-47.8345 -28.9959,-31.9959 -43.4998,-73.3344 -43.4998,-124.003 0,-45.6612 13.8307,-82.665 41.3384,-111.165 27.496,-28.4999 61.3226,-42.6612 101.657,-42.6612 40.8424,0 74.1729,14.1614 100.334,42.6612 26.3385,28.4999 39.3306,67.9958 39.3306,118.5z" />
      </glyph>
      <glyph
         id="glyph3148-7"
         horiz-adv-x="556"
         unicode="3">
        <path
           id="path3146-8"
           d="M41.9998 188.999l87.8382 11.6692c10.1574,-49.8305 27.3306,-85.665 51.4959,-107.669 24.3306,-22.0039 53.8344,-32.9999 88.665,-32.9999 41.3384,0 76.3343,14.3385 104.834,43.0038 28.3345,28.6652 42.6612,64.169 42.6612,106.5 0,40.3345 -13.1574,73.6651 -39.4959,99.8264 -26.5038,26.1731 -59.9998,39.3424 -100.665,39.3424 -16.6653,0 -37.3345,-3.34251 -61.9958,-9.83854l9.82673 77.1611c5.83462,-0.661415 10.5,-0.992122 14.1732,-0.992122 37.3345,0 70.9958,9.82673 100.996,29.3267 29.9999,19.4999 44.9998,49.6652 44.9998,90.3422 0,32.1613 -10.996,58.9958 -32.8345,79.9957 -21.8267,21.1653 -49.9959,31.8306 -84.4957,31.8306 -34.1692,0 -62.669,-10.8307 -85.3343,-32.1613 -22.8306,-21.5078 -37.4999,-53.8344 -44.0077,-96.8382l-87.8264 15.6732c10.6653,58.9958 35.1613,104.657 73.169,136.996 38.1613,32.3385 85.4997,48.6612 142.169,48.6612 38.9998,0 74.9997,-8.49209 107.822,-25.1574 32.8345,-16.8425 58.0037,-39.6731 75.5076,-68.669 17.3267,-28.9959 26.1613,-59.6691 26.1613,-92.3382 0,-30.8267 -8.32674,-58.9958 -24.992,-84.4957 -16.6771,-25.3345 -41.1731,-45.4959 -73.6769,-60.4958 42.3424,-9.67319 75.1769,-29.9999 98.6689,-60.8383 23.3385,-30.6613 35.0077,-69.1651 35.0077,-115.334 0,-62.5037 -22.6771,-115.5 -68.3383,-158.999 -45.4959,-43.4998 -103.169,-65.1612 -172.83,-65.1612 -62.8344,0 -115.003,18.6613 -156.507,56.1612 -41.492,37.3345 -65.1612,85.8304 -70.9958,145.499z" />
      </glyph>
      <glyph
         id="glyph3152-5"
         horiz-adv-x="556"
         unicode="7">
        <path
           id="path3150-3"
           d="M47.3384 622.001l0 84.4957 463.333 0 0 -68.3265c-45.5077,-48.5077 -90.6729,-113.007 -135.507,-193.334 -44.6691,-80.3383 -79.3343,-163.169 -103.665,-248.007 -17.6692,-59.9998 -28.8306,-125.492 -33.6613,-196.83l-90.3422 0c1.00393,56.3384 12,124.334 33.177,204.165 21.1653,79.665 51.4959,156.673 90.9918,230.668 39.6731,73.9958 81.6729,136.499 126.33,187.169l-350.656 0z" />
      </glyph>
      <glyph
         id="glyph3156-3"
         horiz-adv-x="556"
         unicode="6">
        <path
           id="path3154-83"
           d="M497.502 540.506l-87.3304 -6.83856c-7.84249,34.4999 -18.8385,59.6691 -33.177,75.1651 -23.8227,25.1692 -53.1612,37.6652 -87.9918,37.6652 -28.0038,0 -52.4998,-7.83068 -73.6651,-23.492 -27.6731,-20.1731 -49.4998,-49.677 -65.5037,-88.3343 -15.8385,-38.6691 -24.1653,-93.8382 -24.8385,-165.507 21.1653,32.1731 47.0077,56.173 77.669,71.8344 30.5078,15.496 62.669,23.3385 96.165,23.3385 58.6651,0 108.507,-21.5078 149.669,-64.6651 41.1731,-43.1691 61.8305,-98.8343 61.8305,-167.173 0,-44.9998 -9.82673,-86.669 -29.1613,-125.338 -19.3346,-38.492 -46.0038,-68.1611 -79.8304,-88.665 -33.8384,-20.492 -72.1651,-30.6613 -115.169,-30.6613 -73.3344,0 -133.003,26.8345 -179.173,80.8343 -46.3345,53.8344 -69.3304,142.665 -69.3304,266.326 0,138.342 25.4999,238.842 76.6651,301.676 44.5038,54.6612 104.504,82.1572 180.165,82.1572 56.173,0 102.342,-15.8267 138.342,-47.4919 35.9999,-31.4999 57.4958,-75.1651 64.6651,-130.83zm-358.841 -308.503c0,-30.3306 6.50785,-59.3383 19.3346,-86.9997 12.8385,-27.6731 30.8385,-48.673 53.8344,-63.1651 23.1731,-14.5039 47.5037,-21.8385 72.8383,-21.8385 37.1691,0 68.9997,14.9999 95.6689,44.9998 26.6574,29.9999 39.992,70.6651 39.992,121.996 0,49.4998 -13.1574,88.4997 -39.4959,117 -26.3385,28.4999 -59.5037,42.6731 -99.4957,42.6731 -39.8384,0 -73.4997,-14.1732 -101.173,-42.6731 -27.6613,-28.4999 -41.5038,-65.8226 -41.5038,-111.992z" />
      </glyph>
      <glyph
         id="glyph3160-7"
         horiz-adv-x="556"
         unicode="5">
        <path
           id="path3158-9"
           d="M41.5038 187.499l92.3264 7.83068c6.83856,-44.9998 22.6653,-78.6611 47.5037,-101.326 25.0038,-22.6653 55.0037,-34.0038 90.165,-34.0038 42.3305,0 78.165,16.0039 107.338,47.8345 29.3267,31.9959 43.9959,74.3383 43.9959,127.003 0,50.1612 -13.996,89.6571 -42.1652,118.665 -28.1692,28.9959 -64.9958,43.4998 -110.669,43.4998 -28.3345,0 -53.8344,-6.50785 -76.6651,-19.3346 -22.8306,-12.8385 -40.6652,-29.5038 -53.6691,-49.9959l-82.4997 10.6653 69.3304 367.664 356.006 0 0 -83.9997 -285.672 0 -38.6691 -192.33c43.0038,29.9999 88.1689,44.9998 135.342,44.9998 62.4919,0 115.169,-21.6731 158.161,-65.0076 43.0038,-43.3345 64.4997,-98.9996 64.4997,-166.995 0,-64.8305 -18.9921,-120.838 -56.6691,-167.999 -45.9919,-57.8384 -108.661,-86.8343 -187.995,-86.8343 -65.1612,0 -118.334,18.1653 -159.495,54.6612 -41.1731,36.5077 -64.6651,84.8382 -70.4997,145.003z" />
      </glyph>
      <glyph
         id="glyph3164-3"
         horiz-adv-x="556"
         unicode="0">
        <path
           id="path3162-7"
           d="M41.5038 352.995c0,84.6729 8.65745,152.834 26.1613,204.342 17.3385,51.6612 43.3345,91.4996 77.669,119.492 34.3345,28.0038 77.5036,41.9998 129.496,41.9998 38.5038,0 72.1651,-7.83068 101.173,-23.3267 28.9959,-15.3306 52.8305,-37.6652 71.8344,-66.8383 18.8267,-29.1613 33.6613,-64.6651 44.3266,-106.5 10.8425,-41.8345 16.1692,-98.161 16.1692,-169.169 0,-83.9997 -8.66926,-151.665 -25.8306,-203.326 -17.3385,-51.673 -43.1691,-91.4996 -77.5036,-119.669 -34.3345,-28.1692 -77.669,-42.1652 -130.169,-42.1652 -68.9997,0 -123.165,24.6613 -162.495,74.1611 -47.173,59.5037 -70.8304,156.673 -70.8304,290.999zm90.3304 0c0,-117.496 13.8307,-195.661 41.3384,-234.66 27.496,-38.8345 61.3226,-58.3344 101.657,-58.3344 40.4998,0 74.3383,19.6653 101.834,58.6651 27.5078,38.9998 41.3384,117.165 41.3384,234.33 0,117.838 -13.8307,196.169 -41.3384,234.838 -27.496,38.8345 -61.6651,58.1691 -102.661,58.1691 -40.4998,0 -72.6729,-17.1732 -96.8382,-51.3305 -30.1652,-43.4998 -45.3305,-124.169 -45.3305,-241.676z" />
      </glyph>
      <glyph
         id="glyph3168-8"
         horiz-adv-x="556"
         unicode="4">
        <path
           id="path3166-7"
           d="M323.172 0l0 171.33 -310.511 0 0 80.669 326.668 463.829 71.8344 0 0 -463.829 96.6728 0 0 -80.669 -96.6728 0 0 -171.33 -87.9918 0zm0 251.999l0 322.664 -224.007 -322.664 224.007 0z" />
      </glyph>
    </font>
    <style
       id="style3171-4"
       type="text/css"><![CDATA[
    @font-face { font-family:"Arial";src:url("#FontID0") format(svg)}
    .str0 {stroke:black;stroke-width:20}
    .str1 {stroke:black;stroke-width:50}
    .str4 {stroke:black;stroke-width:75}
    .str5 {stroke:#00CCFF;stroke-width:75}
    .str3 {stroke:#99FF00;stroke-width:75}
    .str2 {stroke:red;stroke-width:75;stroke-linejoin:round}
    .fil2 {fill:none}
    .fil6 {fill:#E31E24}
    .fil0 {fill:black}
    .fil4 {fill:#00CCFF}
    .fil5 {fill:lime}
    .fil3 {fill:black;fill-rule:nonzero}
    .fil1 {fill:url(#id0)}
    .fnt0 {font-weight:normal;font-size:846.67;font-family:'Arial'}
   ]]></style>
    <inkscape:perspective
       id="perspective194-84"
       inkscape:persp3d-origin="382 : 197 : 1"
       inkscape:vp_z="764 : 295.5 : 1"
       inkscape:vp_y="0 : 1000 : 0"
       inkscape:vp_x="0 : 295.5 : 1"
       sodipodi:type="inkscape:persp3d" />
    <inkscape:perspective
       sodipodi:type="inkscape:persp3d"
       inkscape:vp_x="0 : 112.5 : 1"
       inkscape:vp_y="0 : 1000 : 0"
       inkscape:vp_z="768 : 112.5 : 1"
       inkscape:persp3d-origin="384 : 75 : 1"
       id="perspective377-30-3" />
    <font
       id="FontID0-52-7"
       horiz-adv-x="667"
       font-variant="normal"
       style="fill-rule:nonzero"
       font-style="normal"
       font-weight="400">
      <font-face
         font-family="Arial"
         id="font-face3132-9-1" />
      <missing-glyph
         id="missing-glyph3136-0-3">
        <path
           d="M0 0z"
           id="path3134-2-8" />
      </missing-glyph>
      <glyph
         unicode="8"
         horiz-adv-x="556"
         id="glyph3140-8-0">
        <path
           d="M176.834 388.168c-36.4959,13.3346 -63.4958,32.3266 -81.165,57.1651 -17.5039,24.6613 -26.3385,54.3305 -26.3385,88.8304 0,52.1691 18.6732,95.8343 56.173,131.338 37.4999,35.5038 87.165,53.3266 149.326,53.3266 62.5037,0 112.842,-18.1653 151.003,-54.4958 37.9959,-36.3306 56.9998,-80.5036 56.9998,-132.661 0,-33.177 -8.66926,-62.0076 -25.996,-86.669 -17.5039,-24.5078 -43.8423,-43.4998 -79.3343,-56.8344 43.8305,-14.3385 77.3265,-37.3345 100.334,-69.3304 22.8306,-31.8424 34.3345,-70.0037 34.3345,-114.165 0,-61.3344 -21.6731,-112.677 -64.8423,-154.334 -43.3345,-41.6691 -100.334,-62.5037 -170.999,-62.5037 -70.6651,0 -127.499,20.8346 -170.834,62.669 -43.3345,41.8345 -64.9958,93.9918 -64.9958,156.495 0,46.4998 11.8346,85.4997 35.5038,117 23.492,31.3345 57.1651,52.8305 100.83,64.169zm-17.6692 148.995c0,-33.8266 11.0078,-61.4998 32.6692,-82.9957 21.8385,-21.496 50.1612,-32.3385 85.0036,-32.3385 33.8266,0 61.6651,10.6653 83.3264,32.0077 21.6731,21.3306 32.3385,47.4919 32.3385,78.3304 0,32.3385 -11.0078,59.3383 -33.3306,81.3304 -22.3346,22.0039 -50.0077,32.9999 -83.3383,32.9999 -33.4959,0 -61.3344,-10.8307 -83.5036,-32.1613 -22.1574,-21.5078 -33.1652,-47.3384 -33.1652,-77.1729zm-28.3345 -330.66c0,-25.0038 5.99998,-49.3345 17.8346,-72.6729 11.8346,-23.492 29.5038,-41.6691 53.0077,-54.4958 23.492,-12.8385 48.6612,-19.3346 75.6611,-19.3346 41.9998,0 76.6651,13.4999 103.996,40.6652 27.3424,26.9999 41.0077,61.3344 41.0077,103.004 0,42.3305 -14.0078,77.3265 -42.1652,105 -28.1692,27.6613 -63.5076,41.5038 -105.838,41.5038 -41.3384,0 -75.4958,-13.6771 -102.661,-41.0077 -27.1771,-27.496 -40.8424,-61.6651 -40.8424,-102.661z"
           id="path3138-3-9" />
      </glyph>
      <glyph
         unicode="9"
         horiz-adv-x="556"
         id="glyph3144-80-7">
        <path
           d="M54.6612 165.495l84.5075 7.84249c7.16926,-39.6731 20.8346,-68.5037 40.9959,-86.5036 20.1731,-17.8346 46.0038,-26.8345 77.669,-26.8345 26.9999,0 50.6691,6.16533 70.9958,18.6613 20.3385,12.3425 37.0038,28.8424 50.0077,49.4998 13.1574,20.6692 23.9999,48.673 32.8345,83.669 8.65745,35.1731 13.1574,71.0076 13.1574,107.504 0,3.83857 -0.165354,9.83854 -0.496061,17.5039 -17.6692,-27.8385 -41.6691,-50.6691 -71.9997,-68.0076 -30.4959,-17.4921 -63.4958,-26.1613 -98.8343,-26.1613 -59.3265,0 -109.5,21.496 -150.495,64.4997 -41.0077,43.0038 -61.4998,99.4957 -61.4998,169.83 0,72.6729 21.3306,131.007 64.1572,175.334 42.8384,44.3384 96.5075,66.4958 161.007,66.4958 46.4998,0 88.9957,-12.6614 127.665,-37.6652 38.5038,-24.992 67.8304,-60.8265 87.8382,-107.161 19.996,-46.3345 29.9999,-113.503 29.9999,-201.507 0,-91.3225 -9.83854,-164.161 -29.6692,-218.491 -20.0078,-54.1651 -49.4998,-95.3382 -88.665,-123.673 -39.3424,-28.3345 -85.169,-42.4959 -137.999,-42.4959 -56.0077,0 -101.669,15.496 -137.173,46.6652 -35.5038,31.0038 -56.8344,74.669 -64.0037,130.996zm359.833 316.003c0,50.3384 -13.3228,90.5075 -40.1573,120 -26.9999,29.6692 -59.173,44.5038 -97.0036,44.5038 -38.9998,0 -73.0036,-16.0039 -102,-47.8345 -28.9959,-31.9959 -43.4998,-73.3344 -43.4998,-124.003 0,-45.6612 13.8307,-82.665 41.3384,-111.165 27.496,-28.4999 61.3226,-42.6612 101.657,-42.6612 40.8424,0 74.1729,14.1614 100.334,42.6612 26.3385,28.4999 39.3306,67.9958 39.3306,118.5z"
           id="path3142-4-9" />
      </glyph>
      <glyph
         unicode="3"
         horiz-adv-x="556"
         id="glyph3148-0-9">
        <path
           d="M41.9998 188.999l87.8382 11.6692c10.1574,-49.8305 27.3306,-85.665 51.4959,-107.669 24.3306,-22.0039 53.8344,-32.9999 88.665,-32.9999 41.3384,0 76.3343,14.3385 104.834,43.0038 28.3345,28.6652 42.6612,64.169 42.6612,106.5 0,40.3345 -13.1574,73.6651 -39.4959,99.8264 -26.5038,26.1731 -59.9998,39.3424 -100.665,39.3424 -16.6653,0 -37.3345,-3.34251 -61.9958,-9.83854l9.82673 77.1611c5.83462,-0.661415 10.5,-0.992122 14.1732,-0.992122 37.3345,0 70.9958,9.82673 100.996,29.3267 29.9999,19.4999 44.9998,49.6652 44.9998,90.3422 0,32.1613 -10.996,58.9958 -32.8345,79.9957 -21.8267,21.1653 -49.9959,31.8306 -84.4957,31.8306 -34.1692,0 -62.669,-10.8307 -85.3343,-32.1613 -22.8306,-21.5078 -37.4999,-53.8344 -44.0077,-96.8382l-87.8264 15.6732c10.6653,58.9958 35.1613,104.657 73.169,136.996 38.1613,32.3385 85.4997,48.6612 142.169,48.6612 38.9998,0 74.9997,-8.49209 107.822,-25.1574 32.8345,-16.8425 58.0037,-39.6731 75.5076,-68.669 17.3267,-28.9959 26.1613,-59.6691 26.1613,-92.3382 0,-30.8267 -8.32674,-58.9958 -24.992,-84.4957 -16.6771,-25.3345 -41.1731,-45.4959 -73.6769,-60.4958 42.3424,-9.67319 75.1769,-29.9999 98.6689,-60.8383 23.3385,-30.6613 35.0077,-69.1651 35.0077,-115.334 0,-62.5037 -22.6771,-115.5 -68.3383,-158.999 -45.4959,-43.4998 -103.169,-65.1612 -172.83,-65.1612 -62.8344,0 -115.003,18.6613 -156.507,56.1612 -41.492,37.3345 -65.1612,85.8304 -70.9958,145.499z"
           id="path3146-9-3" />
      </glyph>
      <glyph
         unicode="7"
         horiz-adv-x="556"
         id="glyph3152-1-2">
        <path
           d="M47.3384 622.001l0 84.4957 463.333 0 0 -68.3265c-45.5077,-48.5077 -90.6729,-113.007 -135.507,-193.334 -44.6691,-80.3383 -79.3343,-163.169 -103.665,-248.007 -17.6692,-59.9998 -28.8306,-125.492 -33.6613,-196.83l-90.3422 0c1.00393,56.3384 12,124.334 33.177,204.165 21.1653,79.665 51.4959,156.673 90.9918,230.668 39.6731,73.9958 81.6729,136.499 126.33,187.169l-350.656 0z"
           id="path3150-9-4" />
      </glyph>
      <glyph
         unicode="6"
         horiz-adv-x="556"
         id="glyph3156-6-3">
        <path
           d="M497.502 540.506l-87.3304 -6.83856c-7.84249,34.4999 -18.8385,59.6691 -33.177,75.1651 -23.8227,25.1692 -53.1612,37.6652 -87.9918,37.6652 -28.0038,0 -52.4998,-7.83068 -73.6651,-23.492 -27.6731,-20.1731 -49.4998,-49.677 -65.5037,-88.3343 -15.8385,-38.6691 -24.1653,-93.8382 -24.8385,-165.507 21.1653,32.1731 47.0077,56.173 77.669,71.8344 30.5078,15.496 62.669,23.3385 96.165,23.3385 58.6651,0 108.507,-21.5078 149.669,-64.6651 41.1731,-43.1691 61.8305,-98.8343 61.8305,-167.173 0,-44.9998 -9.82673,-86.669 -29.1613,-125.338 -19.3346,-38.492 -46.0038,-68.1611 -79.8304,-88.665 -33.8384,-20.492 -72.1651,-30.6613 -115.169,-30.6613 -73.3344,0 -133.003,26.8345 -179.173,80.8343 -46.3345,53.8344 -69.3304,142.665 -69.3304,266.326 0,138.342 25.4999,238.842 76.6651,301.676 44.5038,54.6612 104.504,82.1572 180.165,82.1572 56.173,0 102.342,-15.8267 138.342,-47.4919 35.9999,-31.4999 57.4958,-75.1651 64.6651,-130.83zm-358.841 -308.503c0,-30.3306 6.50785,-59.3383 19.3346,-86.9997 12.8385,-27.6731 30.8385,-48.673 53.8344,-63.1651 23.1731,-14.5039 47.5037,-21.8385 72.8383,-21.8385 37.1691,0 68.9997,14.9999 95.6689,44.9998 26.6574,29.9999 39.992,70.6651 39.992,121.996 0,49.4998 -13.1574,88.4997 -39.4959,117 -26.3385,28.4999 -59.5037,42.6731 -99.4957,42.6731 -39.8384,0 -73.4997,-14.1732 -101.173,-42.6731 -27.6613,-28.4999 -41.5038,-65.8226 -41.5038,-111.992z"
           id="path3154-2-7" />
      </glyph>
      <glyph
         unicode="5"
         horiz-adv-x="556"
         id="glyph3160-5-1">
        <path
           d="M41.5038 187.499l92.3264 7.83068c6.83856,-44.9998 22.6653,-78.6611 47.5037,-101.326 25.0038,-22.6653 55.0037,-34.0038 90.165,-34.0038 42.3305,0 78.165,16.0039 107.338,47.8345 29.3267,31.9959 43.9959,74.3383 43.9959,127.003 0,50.1612 -13.996,89.6571 -42.1652,118.665 -28.1692,28.9959 -64.9958,43.4998 -110.669,43.4998 -28.3345,0 -53.8344,-6.50785 -76.6651,-19.3346 -22.8306,-12.8385 -40.6652,-29.5038 -53.6691,-49.9959l-82.4997 10.6653 69.3304 367.664 356.006 0 0 -83.9997 -285.672 0 -38.6691 -192.33c43.0038,29.9999 88.1689,44.9998 135.342,44.9998 62.4919,0 115.169,-21.6731 158.161,-65.0076 43.0038,-43.3345 64.4997,-98.9996 64.4997,-166.995 0,-64.8305 -18.9921,-120.838 -56.6691,-167.999 -45.9919,-57.8384 -108.661,-86.8343 -187.995,-86.8343 -65.1612,0 -118.334,18.1653 -159.495,54.6612 -41.1731,36.5077 -64.6651,84.8382 -70.4997,145.003z"
           id="path3158-4-2" />
      </glyph>
      <glyph
         unicode="0"
         horiz-adv-x="556"
         id="glyph3164-4-20">
        <path
           d="M41.5038 352.995c0,84.6729 8.65745,152.834 26.1613,204.342 17.3385,51.6612 43.3345,91.4996 77.669,119.492 34.3345,28.0038 77.5036,41.9998 129.496,41.9998 38.5038,0 72.1651,-7.83068 101.173,-23.3267 28.9959,-15.3306 52.8305,-37.6652 71.8344,-66.8383 18.8267,-29.1613 33.6613,-64.6651 44.3266,-106.5 10.8425,-41.8345 16.1692,-98.161 16.1692,-169.169 0,-83.9997 -8.66926,-151.665 -25.8306,-203.326 -17.3385,-51.673 -43.1691,-91.4996 -77.5036,-119.669 -34.3345,-28.1692 -77.669,-42.1652 -130.169,-42.1652 -68.9997,0 -123.165,24.6613 -162.495,74.1611 -47.173,59.5037 -70.8304,156.673 -70.8304,290.999zm90.3304 0c0,-117.496 13.8307,-195.661 41.3384,-234.66 27.496,-38.8345 61.3226,-58.3344 101.657,-58.3344 40.4998,0 74.3383,19.6653 101.834,58.6651 27.5078,38.9998 41.3384,117.165 41.3384,234.33 0,117.838 -13.8307,196.169 -41.3384,234.838 -27.496,38.8345 -61.6651,58.1691 -102.661,58.1691 -40.4998,0 -72.6729,-17.1732 -96.8382,-51.3305 -30.1652,-43.4998 -45.3305,-124.169 -45.3305,-241.676z"
           id="path3162-9-2" />
      </glyph>
      </font>
</defs>
</svg>
